TORRENTS45.XYZ

Скачать Гениальный ребёнок. Сборник обучающих видео для развития детей. (2009) DVD5


Гениальный ребёнок. Сборник обучающих видео для развития детей. (2009) DVD5
Русское название: Гениальный ребёнок. Сборник обучающих видео для развития детей.
Год выпуска: 2009
Производство: Россия
Жанр: Обучающий

Описание фильма:
Подборка видео программ для развития детей с 1 года и до 12 лет.

Учебные видео:

1. Гениальный ребёнок. Английский язык: Выучи первые слова
2. Гениальный ребёнок. 123: Учимся считать от 1 до 20
3. Маленький гений. Развитие памяти у детей
4. Русский язык вместе с Хрюшей и Степашей (1-4 часть)
5. Подготовишка. Фильм 1: Чтение
6. Подготовишка. Фильм 2: Математика
7. Видео курс - English в стихах и песнях
8. Детские танцы
Продолжительность: 05:02:51
Качество видео: DVD5

Видеокодек: MPEG-2
Битрейт видео: ~835 kb/s
Размер кадра: 352x288
Аудиокодек: AC3 1 ch
Битрейт аудио: 80 kb/s

DVDInfo

Title: Гениальный ребенок-1
Size: 4.36 Gb ( 4 574 962,00 KBytes ) - DVD-5
Enabled regions: 1, 2, 3, 4, 5, 6, 7, 8

VTS_01 :
Play Length: 00:42:43
Video: PAL 4:3 (352x288) VBR
Audio:
English (Dolby AC3, 1 ch)

VTS_02 :
Play Length: 00:42:47
Video: PAL 4:3 (352x288) VBR
Audio:
English (Dolby AC3, 1 ch)

VTS_03 :
Play Length: 01:10:27
Video: PAL 4:3 (352x288) VBR
Audio:
English (Dolby AC3, 1 ch)

VTS_04 :
Play Length: 00:49:51
Video: PAL 4:3 (352x288) VBR
Audio:
English (Dolby AC3, 2 ch)

VTS_05 :
Play Length: 01:22:38
Video: PAL 4:3 (352x288) VBR
Audio:
English (Dolby AC3, 2 ch)

VTS_06 :
Play Length: 01:31:24+01:31:15+00:59:43+01:00:29
Video: PAL 4:3 (352x288) VBR
Audio:
English (Dolby AC3, 1 ch)

VTS_07 :
Play Length: 00:31:01
Video: PAL 4:3 (352x288) VBR
Audio:
English (Dolby AC3, 1 ch)

VTS_08 :
Play Length: 00:40:01
Video: PAL 4:3 (352x288) VBR
Audio:
English (Dolby AC3, 1 ch)

* Menus Information *

VIDEO_TS Menu
Video:
PAL 4:3 (720x576) VBR
English Language Unit :
Title Menu

VTS_01 Menu
Video:
PAL 4:3 (720x576) VBR
English Language Unit :
Root Menu

VTS_02 Menu
Video:
PAL 4:3 (720x576) VBR
English Language Unit :
Root Menu

VTS_03 Menu
Video:
PAL 4:3 (720x576) VBR
English Language Unit :
Root Menu

VTS_04 Menu
Video:
PAL 4:3 (720x576) VBR
English Language Unit :
Root Menu

VTS_05 Menu
Video:
PAL 4:3 (720x576) VBR
English Language Unit :
Root Menu

VTS_06 Menu
Video:
PAL 4:3 (720x576) VBR
English Language Unit :
Root Menu

VTS_07 Menu
Video:
PAL 4:3 (720x576) VBR
English Language Unit :
Root Menu

VTS_08 Menu
Video:
PAL 4:3 (720x576) VBR
English Language Unit :
Root Menu

MediaInfo

Формат : MPEG-PS
Размер файла : 285 Мбайт
Продолжительность : 42 м.
Режим общего битрейта : Переменный
Общий поток : 934 Кбит/сек

Видео
Идентификатор : 224 (0xE0)
Формат : MPEG Video
Версия формата : Version 2
Профиль формата : Main@Main
Параметр BVOP формата : Да
Параметр матрицы формата : Выборочная
Продолжительность : 42 м.
Вид битрейта : Переменный
Битрейт : 835 Кбит/сек
Максимальный битрейт : 2500 Кбит/сек
Ширина : 352 пикселя
Высота : 288 пикселей
Соотношение сторон : 4:3
Частота кадров : 25,000 кадров/сек
Стандарт вещания : PAL
Цветовое пространство : YUV
Субдискретизация насыщенности : 4:2:0
Битовая глубина : 8 бит
Тип развёртки : Чересстрочная
Порядок развёртки : Верхнее поле первое
Метод сжатия : С потерями
Бит/(Пиксели*Кадры) : 0.330
Размер потока : 255 Мбайт (89%)

Аудио
Идентификатор : 189 (0xBD)-128 (0x80)
Формат : AC-3
Формат/Информация : Audio Coding 3
Расширение режима : CM (complete main)
Параметр Endianness формата : Big
Режим смешивания : DVD-Video
Продолжительность : 42 м.
Вид битрейта : Постоянный
Битрейт : 80,0 Кбит/сек
Каналы : 1 канал
Расположение каналов : Front: C
Частота : 48,0 КГц
Битовая глубина : 16 бит
Метод сжатия : С потерями
Размер потока : 24,4 Мбайт (9%)
Скриншоты:


Смотрите так же другие

Детали торрента:
Название:Гениальный ребёнок. Сборник обучающих видео для развития детей. (2009) DVD5
Дата добавления:25 Июн 2012 21:15:05
Размер:4,36 GB
Раздают:
Качают:0
Форум:Развивающее Видео для детей

All rights reserved © 2015-2018