TORRENTS45.XYZ

Скачать Комнаты смерти: загадки настоящего Шерлока Холмса / Murder Rooms: Mysteries of the Real Sherlock Holmes [все 5 фильмов](2000-2001) DVDRip (Novafilm)


Комнаты смерти: загадки настоящего Шерлока Холмса / Murder Rooms: Mysteries of the Real Sherlock Holmes (2000-2001) DVDRip
[все 5 фильмов]

Русское название: Комнаты смерти: загадки настоящего Шерлока Холмса
Оригинальное название: Murder Rooms: Mysteries of the Real Sherlock Holmes
Год выпуска: 2000-2001
Производство: Великобритания / BBC, WGBH
Жанр: Драма, Детектив

Перевод: Многоголосый закадровый, профессиональный (Novafilm)
Язык: Русский


Дата мировой премьеры: 2000

Режиссер: Пол Маркус / Paul Marcus
Актеры: Иэн Ричардсон, Чарльз Эдвардс, Саймон Чэндлер, Мосси Смит, Шон Уайтман, Бен Маклеод

Описание фильма:
Сериал является своеобразным рассказом о процессе создания персонажа Шерлока Холмса. Согласно сюжету, после знакомства в университете доктор Джозеф Белл шокирует своим «методом дедукции» Артура Конана Дойла, а затем приглашает его к себе практикантом и помощником. Дойл и доктор Белл становятся близкими друзьями и начинают совместно проводить расследования разных преступлений, которые в итоге создают в голове у Дойла образ нового вымышленного сыщика.

Краткое содержание серий:

Фильм 1 (Мрачное начало Шерлока Холмса / The Dark Beginnings of Sherlock Holmes)

В конце 70-х годов XIX века Артур Конан Дойл, изучая медицину в Эдинбургском университете, знакомится с профессором Джозефом Беллом, разработавшим новаторский метод криминального расследования. Настроенный поначалу скептически, Дойл по стечению обстоятельств втягивает Белла в запутанную историю, в которой переплетаются серия загадочных отравлений, зарождение суфражистского движения, первая любовь молодого студента и даже случившиеся десятью годами позже преступления Джека Потрошителя...

Фильм 2 (Глаза пациентки / The Patient's Eyes)

Артур Конан Дойл оканчивает медицинский факультет Эдинбургского университета и открывает собственную практику. Его пациенты поначалу немногочисленны, но среди них есть девушка, к которой он испытывает не только профессиональный интерес. Помимо редкой глазной болезни, она страдает странным наваждением: каждый раз, когда она возвращается домой на велосипеде, ей мерещится, что вслед за ней по лесной тропинке движется зловещая темная фигура человека, чье лицо скрыто капюшоном. Дойл воспринимает это как галлюцинацию, но профессор Белл придерживается другого мнения.

Фильм 3 (Кресло фотографа / The Photographer's Chair)

Один за другим течение выбрасывает на побережье Брайтона изувеченные трупы. Чтобы найти маньяка-убийцу, полиция обращается за помощью к Артуру Конану Дойлу и профессору Джозефу Беллу. Вскоре пути двух сыщиков расходятся: Белл подозревает в преступлениях эксцентричного местного фотографа, а Дойла расследование приводит в общество состоятельных людей, занимающихся парапсихологическими исследованиями.

Фильм 4 (Царство костей / The Kingdom of Bones)

Один из друзей Конана Дойла, Рубен Проктор, куратор провинциального археологического музея, случайно натыкается на ценную находку: великолепно сохранившуюся египетскую мумию. В надежде собрать средства для пополнения коллекции музея, он приглашает блистательное светское общество на церемонию снятия покровов мумии. Однако результатом, вместо научной сенсации, становится скандал: вместо египетской принцессы, жившей до нашей эры, под покровами оказывается труп мужчины, умершего каких-то две недели назад. Конан Дойл и профессор Белл приступают к расследованию.

Фильм 5 (Комбинация белого коня / The White Knight Stratagem)

Полиция просит профессора Белла помочь в расследовании загадочного преступления: убит сын богатого промышленника. Хотя у покойного было много врагов, его убийство выглядит делом рук случайного грабителя. Белл вместе с Дойлом выдвигают иную версию, но на каждом шагу им чинит препятствия человек, более всего заинтересованный в успехе расследования: полицейский инспектор Блейни, посредственный сыщик, но блистательный шахматист.
Продолжительность: 450 минут (~01:30:00 х 5 серий)
Качество видео: DVDRip
Сэмпл:

Видеокодек: XviD
Битрейт видео: ~851 Кбит/сек
Размер кадра: PAL 16:9 (640x360)
Аудиокодек: MP3
Каналы: 2 канала
Битрейт аудио: 96 Кбит/сек

MediaInfo

Фильм 1 Мрачное начало Шерлока Холмса / The Dark Beginnings of Sherlock Holmes

Общее
Полное имя : Murder_Rooms_Mysteries_of_the_Real_Sherlock_Holmes_DVDRip_x5_[Torrents45.xyz]\1.Мрачное начало Шерлока Холмса.avi
Формат : AVI
Формат/Информация : Audio Video Interleave
Размер файла : 702 Мбайт
Продолжительность : 1 ч. 42 м.
Общий поток : 956 Кбит/сек
Программа кодирования : VirtualDubMod 1.5.10.2 (build 2542/release)
Библиотека кодирования : VirtualDubMod build 2542/release

Видео
Идентификатор : 0
Формат : MPEG-4 Visual
Профиль формата : Advanced Simple@L5
Параметр BVOP формата : 2
Параметр QPel формата : Нет
Параметр GMC формата : Без точки перехода
Параметр матрицы формата : Default (H.263)
Идентификатор кодека : XVID
Идентификатор кодека/Подсказка : XviD
Продолжительность : 1 ч. 42 м.
Битрейт : 851 Кбит/сек
Ширина : 640 пикселей
Высота : 360 пикселей
Соотношение сторон : 16:9
Частота кадров : 25,000 кадров/сек
Цветовое пространство : YUV
Субдискретизация насыщенности : 4:2:0
Битовая глубина : 8 бит
Тип развёртки : Прогрессивная
Метод сжатия : С потерями
Бит/(Пиксели*Кадры) : 0.148
Размер потока : 625 Мбайт (89%)
Библиотека кодирования : XviD 1.1.2 (UTC 2006-11-01)

Аудио
Идентификатор : 1
Формат : MPEG Audio
Версия формата : Version 1
Профиль формата : Layer 3
Режим : Joint stereo
Идентификатор кодека : 55
Идентификатор кодека/Подсказка : MP3
Продолжительность : 1 ч. 42 м.
Вид битрейта : Постоянный
Битрейт : 96,0 Кбит/сек
Каналы : 2 канала
Частота : 48,0 КГц
Метод сжатия : С потерями
Размер потока : 70,5 Мбайт (10%)
Выравнивание : Соединение по промежуткам
Продолжительность промежутка : 40 мс. (1,00 видеокадр)
Время предзагрузки промежутка : 504 мс.
Библиотека кодирования : LAME3.98
Настройки программы : -m j -V 4 -q 2 -lowpass 15.1 -b 96

Фильм 2 Глаза пациентки / The Patient's Eyes

Общее
Полное имя : Murder_Rooms_Mysteries_of_the_Real_Sherlock_Holmes_DVDRip_x5_[Torrents45.xyz]\2.Глаза пациентки.avi
Формат : AVI
Формат/Информация : Audio Video Interleave
Размер файла : 702 Мбайт
Продолжительность : 1 ч. 29 м.
Общий поток : 1103 Кбит/сек
Программа кодирования : VirtualDubMod 1.5.10.2 (build 2542/release)
Библиотека кодирования : VirtualDubMod build 2542/release

Видео
Идентификатор : 0
Формат : MPEG-4 Visual
Профиль формата : Advanced Simple@L5
Параметр BVOP формата : 2
Параметр QPel формата : Нет
Параметр GMC формата : Без точки перехода
Параметр матрицы формата : Default (H.263)
Идентификатор кодека : XVID
Идентификатор кодека/Подсказка : XviD
Продолжительность : 1 ч. 29 м.
Битрейт : 997 Кбит/сек
Ширина : 640 пикселей
Высота : 360 пикселей
Соотношение сторон : 16:9
Частота кадров : 25,000 кадров/сек
Цветовое пространство : YUV
Субдискретизация насыщенности : 4:2:0
Битовая глубина : 8 бит
Тип развёртки : Прогрессивная
Метод сжатия : С потерями
Бит/(Пиксели*Кадры) : 0.173
Размер потока : 635 Мбайт (90%)
Библиотека кодирования : XviD 1.1.2 (UTC 2006-11-01)

Аудио
Идентификатор : 1
Формат : MPEG Audio
Версия формата : Version 1
Профиль формата : Layer 3
Режим : Joint stereo
Расширение режима : MS Stereo
Идентификатор кодека : 55
Идентификатор кодека/Подсказка : MP3
Продолжительность : 1 ч. 29 м.
Вид битрейта : Постоянный
Битрейт : 96,0 Кбит/сек
Каналы : 2 канала
Частота : 48,0 КГц
Метод сжатия : С потерями
Размер потока : 61,1 Мбайт (9%)
Выравнивание : Соединение по промежуткам
Продолжительность промежутка : 40 мс. (1,00 видеокадр)
Время предзагрузки промежутка : 504 мс.
Библиотека кодирования : LAME3.98
Настройки программы : -m j -V 4 -q 2 -lowpass 15.1 -b 96

Фильм 3 Кресло фотографа / The Photographer's Chair

Общее
Полное имя : Murder_Rooms_Mysteries_of_the_Real_Sherlock_Holmes_DVDRip_x5_[Torrents45.xyz]\3.Кресло фотографа.avi
Формат : AVI
Формат/Информация : Audio Video Interleave
Размер файла : 702 Мбайт
Продолжительность : 1 ч. 28 м.
Общий поток : 1112 Кбит/сек
Программа кодирования : VirtualDubMod 1.5.10.2 (build 2542/release)
Библиотека кодирования : VirtualDubMod build 2542/release

Видео
Идентификатор : 0
Формат : MPEG-4 Visual
Профиль формата : Advanced Simple@L5
Параметр BVOP формата : 2
Параметр QPel формата : Нет
Параметр GMC формата : Без точки перехода
Параметр матрицы формата : Default (H.263)
Идентификатор кодека : XVID
Идентификатор кодека/Подсказка : XviD
Продолжительность : 1 ч. 28 м.
Битрейт : 1006 Кбит/сек
Ширина : 640 пикселей
Высота : 360 пикселей
Соотношение сторон : 16:9
Частота кадров : 25,000 кадров/сек
Цветовое пространство : YUV
Субдискретизация насыщенности : 4:2:0
Битовая глубина : 8 бит
Тип развёртки : Прогрессивная
Метод сжатия : С потерями
Бит/(Пиксели*Кадры) : 0.175
Размер потока : 636 Мбайт (90%)
Библиотека кодирования : XviD 1.1.2 (UTC 2006-11-01)

Аудио
Идентификатор : 1
Формат : MPEG Audio
Версия формата : Version 1
Профиль формата : Layer 3
Режим : Joint stereo
Расширение режима : MS Stereo
Идентификатор кодека : 55
Идентификатор кодека/Подсказка : MP3
Продолжительность : 1 ч. 28 м.
Вид битрейта : Постоянный
Битрейт : 96,0 Кбит/сек
Каналы : 2 канала
Частота : 48,0 КГц
Метод сжатия : С потерями
Размер потока : 60,7 Мбайт (9%)
Выравнивание : Соединение по промежуткам
Продолжительность промежутка : 40 мс. (1,00 видеокадр)
Время предзагрузки промежутка : 504 мс.
Библиотека кодирования : LAME3.98
Настройки программы : -m j -V 4 -q 2 -lowpass 15.1 -b 96

Фильм 4 Царство костей / The Kingdom of Bones

Общее
Полное имя : Murder_Rooms_Mysteries_of_the_Real_Sherlock_Holmes_DVDRip_x5_[Torrents45.xyz]\4.Царство костей.avi
Формат : AVI
Формат/Информация : Audio Video Interleave
Размер файла : 702 Мбайт
Продолжительность : 1 ч. 28 м.
Общий поток : 1114 Кбит/сек
Программа кодирования : VirtualDubMod 1.5.10.2 (build 2542/release)
Библиотека кодирования : VirtualDubMod build 2542/release

Видео
Идентификатор : 0
Формат : MPEG-4 Visual
Профиль формата : Advanced Simple@L5
Параметр BVOP формата : 2
Параметр QPel формата : Нет
Параметр GMC формата : Без точки перехода
Параметр матрицы формата : Default (H.263)
Идентификатор кодека : XVID
Идентификатор кодека/Подсказка : XviD
Продолжительность : 1 ч. 28 м.
Битрейт : 1009 Кбит/сек
Ширина : 640 пикселей
Высота : 360 пикселей
Соотношение сторон : 16:9
Частота кадров : 25,000 кадров/сек
Цветовое пространство : YUV
Субдискретизация насыщенности : 4:2:0
Битовая глубина : 8 бит
Тип развёртки : Прогрессивная
Метод сжатия : С потерями
Бит/(Пиксели*Кадры) : 0.175
Размер потока : 636 Мбайт (91%)
Библиотека кодирования : XviD 1.1.2 (UTC 2006-11-01)

Аудио
Идентификатор : 1
Формат : MPEG Audio
Версия формата : Version 1
Профиль формата : Layer 3
Режим : Joint stereo
Расширение режима : MS Stereo
Идентификатор кодека : 55
Идентификатор кодека/Подсказка : MP3
Продолжительность : 1 ч. 28 м.
Вид битрейта : Постоянный
Битрейт : 96,0 Кбит/сек
Каналы : 2 канала
Частота : 48,0 КГц
Метод сжатия : С потерями
Размер потока : 60,5 Мбайт (9%)
Выравнивание : Соединение по промежуткам
Продолжительность промежутка : 40 мс. (1,00 видеокадр)
Время предзагрузки промежутка : 504 мс.
Библиотека кодирования : LAME3.98
Настройки программы : -m j -V 4 -q 2 -lowpass 15.1 -b 96

Фильм 5 Комбинация белого коня / The White Knight Stratagem

Общее
Полное имя : Murder_Rooms_Mysteries_of_the_Real_Sherlock_Holmes_DVDRip_x5_[Torrents45.xyz]\5.Комбинация белого коня.avi
Формат : AVI
Формат/Информация : Audio Video Interleave
Размер файла : 702 Мбайт
Продолжительность : 1 ч. 28 м.
Общий поток : 1110 Кбит/сек
Программа кодирования : VirtualDubMod 1.5.10.2 (build 2542/release)
Библиотека кодирования : VirtualDubMod build 2542/release

Видео
Идентификатор : 0
Формат : MPEG-4 Visual
Профиль формата : Advanced Simple@L5
Параметр BVOP формата : 2
Параметр QPel формата : Нет
Параметр GMC формата : Без точки перехода
Параметр матрицы формата : Default (H.263)
Идентификатор кодека : XVID
Идентификатор кодека/Подсказка : XviD
Продолжительность : 1 ч. 28 м.
Битрейт : 1004 Кбит/сек
Ширина : 640 пикселей
Высота : 360 пикселей
Соотношение сторон : 16:9
Частота кадров : 25,000 кадров/сек
Цветовое пространство : YUV
Субдискретизация насыщенности : 4:2:0
Битовая глубина : 8 бит
Тип развёртки : Прогрессивная
Метод сжатия : С потерями
Бит/(Пиксели*Кадры) : 0.174
Размер потока : 635 Мбайт (90%)
Библиотека кодирования : XviD 1.1.2 (UTC 2006-11-01)

Аудио
Идентификатор : 1
Формат : MPEG Audio
Версия формата : Version 1
Профиль формата : Layer 3
Режим : Joint stereo
Идентификатор кодека : 55
Идентификатор кодека/Подсказка : MP3
Продолжительность : 1 ч. 28 м.
Вид битрейта : Постоянный
Битрейт : 96,0 Кбит/сек
Каналы : 2 канала
Частота : 48,0 КГц
Метод сжатия : С потерями
Размер потока : 60,8 Мбайт (9%)
Выравнивание : Соединение по промежуткам
Продолжительность промежутка : 40 мс. (1,00 видеокадр)
Время предзагрузки промежутка : 504 мс.
Библиотека кодирования : LAME3.98
Настройки программы : -m j -V 4 -q 2 -lowpass 15.1 -b 96
Комнаты смерти: загадки настоящего Шерлока Холмса / Murder Rooms: Mysteries of the Real Sherlock Holmes [все 5 фильмов](2000-2001) DVD5 (Novafilm)
Скриншоты:


Детали торрента:
Название:Комнаты смерти: загадки настоящего Шерлока Холмса / Murder Rooms: Mysteries of the Real Sherlock Holmes [все 5 фильмов](2000-2001) DVDRip (Novafilm)
Дата добавления:25 Июн 2012 09:24:32
Размер:3,43 GB
Раздают:
Качают:1
Форум:Зарубежные сериалы

All rights reserved © 2015-2018