TORRENTS45.XYZ

Скачать Знаменитые галереи мира. Коллекция семьи Рубелл. Не боюсь / Gallery tours. Rubell Family Collection. Not Afraid (2004) (Серия 1) HDTV 1080i


Знаменитые галереи мира. Коллекция семьи Рубелл. Не боюсь / Gallery tours. Rubell Family Collection. Not Afraid (2004) HDTV 1080i
Русское название: Знаменитые галереи мира. Коллекция семьи Рубелл. Не боюсь
Оригинальное название: Gallery tours. Rubell Family Collection. Not Afraid
Режиссер / Телекомпания: Adam Meyer / West Beach Entertaiment
Год выпуска: 2004
Жанр: Документальный, Телепередача

Описание:
Музеи - кладовые истории, хранящие культурное наследие стран и народов, живые напоминания о делах давно минувших дней. Посетить музей – значит прикоснуться к своему прошлому, приобщиться к таинству развития цивилизации.
Атмосфера возвышенности и таинственности любого музея привлекает множество посетителей. Самые известные музеи и галереи искусства стремятся посетить туристы со всего света, и поток их из года в год не ослабевает. Однако, в погоне за высокими технологиями современного мира человечество рискует в один прекрасный момент потерять интерес к прошлому – к своей истории.
Музеям, о которых пройдет речь в программе «Знаменитые галереи мира», такая участь не грозит. Их «фишка» - гармоничное сочетание современности и наследия прошлого. Например, в Лувре Вас ждет говорящая галерея и экспозиция вещей, забытых посетителями, в Гонконгском музее искусств есть выставка рисунков молодых художников, в картинах которых соединились традиционная техника китайской живописи и современное, оригинальное видение мира. Клойстер - музей средневекового искусства в центре Нью-Йорка - привлекает именно своим расположением: из шумного мегаполиса ХХI века вы за считанные секунды попадаете под таинственные своды средневекового храма.
Отправьтесь в тур по самым выдающимся музеям и галереям и убедитесь, что последние новинки из мира высоких технологий прекрасно сочетаются с предметами, окружавшими наших предков, создавая удивительные, но гармоничные комбинации.
Серия 1. Коллекция семьи Рубелл (Майами, США).
Впечатляющая выставка коллекции семьи Рубелл в Майами представляет буквально все направления в искусстве за последние тридцать лет.
Автор рипа: dian10
Рип с канала: HD Life
Скриншоты:



Продолжительность: 00:27:02

Перевод: Одноголосый закадровый, профессиональный

Видеокодек: MPEG-4 AVC/H.264
Битрейт видео: ~ 5637 kbps
Размер кадра: 1920x1080 (16:9)
Качество видео: HDTV
Аудиокодек: MP2
Битрейт аудио: 192 Kbps

MediaInfo

General
ID : 1 (0x1)
Complete name : Знаменитые галереи мира. Коллекция семьи Рубелл. Не боюсь.ts
Format : MPEG-TS
File size : 902 MiB
Duration : 27mn 2s
Overall bit rate : 4 665 Kbps

Video
ID : 1700 (0x6A4)
Menu ID : 1 (0x1)
Format : AVC
Format/Info : Advanced Video Codec
Format profile : Main@L4.0
Format settings, CABAC : Yes
Format settings, ReFrames : 4 frames
Codec ID : 27
Duration : 27mn 2s
Bit rate : 4 241 Kbps
Width : 1 920 pixels
Height : 1 080 pixels
Display aspect ratio : 16:9
Frame rate : 25.000 fps
Standard : Component
Color space : YUV
Chroma subsampling : 4:2:0
Bit depth : 8 bits
Scan type : Interlaced
Scan order : Top Field First
Bits/(Pixel*Frame) : 0.082
Stream size : 820 MiB (91%)
Color primaries : BT.709-5, BT.1361, IEC 61966-2-4, SMPTE RP177
Transfer characteristics : BT.709-5, BT.1361
Matrix coefficients : BT.709-5, BT.1361, IEC 61966-2-4 709, SMPTE RP177

Audio
ID : 1710 (0x6AE)
Menu ID : 1 (0x1)
Format : MPEG Audio
Format version : Version 1
Format profile : Layer 2
Codec ID : 3
Duration : 27mn 2s
Bit rate mode : Constant
Bit rate : 192 Kbps
Channel(s) : 2 channels
Sampling rate : 48.0 KHz
Compression mode : Lossy
Stream size : 37.1 MiB (4%)
Language : Russian

Детали торрента:
Название:Знаменитые галереи мира. Коллекция семьи Рубелл. Не боюсь / Gallery tours. Rubell Family Collection. Not Afraid (2004) (Серия 1) HDTV 1080i
Дата добавления:22 Июн 2012 18:44:22
Размер:902 MB
Раздают:
Качают:0
Форум:Интересно обо всем

All rights reserved © 2015-2019