TORRENTS45.XYZ

Скачать Animal Planet. Кошек не любить нельзя [2 серия] / Must love cats (2010) [H.264/1080p-LQ] HDTV


Animal Planet. Кошек не любить нельзя [2 серия] / Must love cats (2010) HDTV
Русское название: Animal Planet. Кошек не любить нельзя
Оригинальное название: Must love cats
Режиссер / Телекомпания: Джон Фултон
Год выпуска: 2010
Жанр: Документальный
Описание:
Приготовьтесь к невиданным кошачьим приключениям в сериале «Кошек не любить нельзя»! Ее ведущий, музыкант Джон Фултон, большой любитель кошек, приглашает совершить путешествие по удивительному миру пушистых хвостатых созданий. Из этого сериала вы узнаете о кошках много удивительного — например, слышит ли кошка с четырьмя ушами лучше, чем ее обыкновенные сородичи. Мы также посетим удивительный город во Флориде, выстроенный исключительно для кошек!


Продолжительность: 00:43:47

Перевод: Одноголосый закадровый, профессиональный

Видеокодек: MPEG-4 AVC/H.264
Битрейт видео: ~11,7 Мбит/сек
Размер кадра: 1920 x 1080
Качество видео: HDTV
Аудиокодек: AC3
Битрейт аудио: 384 Кбит/сек, 6ch

MediaInfo:

Общее
Формат : MPEG-TS
Размер файла : 3,89 Гбайт
Продолжительность : 43 м.
Общий поток : 12,7 Мбит/сек

Видео
Идентификатор : 324 (0x144)
Идентификатор меню : 1 (0x1)
Формат : AVC
Формат/Информация : Advanced Video Codec
Профиль формата : Main@L4.0
Параметр CABAC формата : Да
Параметр ReFrames формата : 3 кадра
Идентификатор кодека : 27
Продолжительность : 43 м.
Битрейт : 11,7 Мбит/сек
Ширина : 1920 пикселей
Высота : 1080 пикселей
Соотношение сторон : 16:9
Частота кадров : 25,000 кадров/сек
Стандарт вещания : Component
Цветовое пространство : YUV
Субдискретизация насыщенности : 4:2:0
Битовая глубина : 8 бит
Тип развёртки : Чересстрочная
Порядок развёртки : Верхнее поле первое
Бит/(Пиксели*Кадры) : 0.226
Размер потока : 3,58 Гбайт (92%)
Основные цвета : BT.709-5, BT.1361, IEC 61966-2-4, SMPTE RP177
Характеристики трансфера : BT.709-5, BT.1361
Коэффициенты матрицы : BT.709-5, BT.1361, IEC 61966-2-4 709, SMPTE RP177

Аудио
Идентификатор : 404 (0x194)
Идентификатор меню : 1 (0x1)
Формат : AC-3
Формат/Информация : Audio Coding 3
Расширение режима : CM (complete main)
Идентификатор кодека : 6
Продолжительность : 43 м.
Вид битрейта : Постоянный
Битрейт : 384 Кбит/сек
Каналы : 6 каналов
Расположение каналов : Front: L C R, Side: L R, LFE
Частота : 48,0 КГц
Битовая глубина : 16 бит
Метод сжатия : С потерями
Размер потока : 120 Мбайт (3%)
Язык : Russian
Кошек не любить нельзя [1 серия]
Кошек не любить нельзя [3 серия]
Кошек не любить нельзя [4 серия]
Кошек не любить нельзя [5 серия]
Кошек не любить нельзя [6 серия]
Скриншоты:


Смотреть Online

Детали торрента:
Название:Animal Planet. Кошек не любить нельзя [2 серия] / Must love cats (2010) [H.264/1080p-LQ] HDTV
Дата добавления:16 Июн 2012 19:05:02
Размер:3,89 GB
Раздают:1
Качают:0
Форум:Animal Planet

All rights reserved © 2015-2019