TORRENTS45.XYZ

Скачать Константин Никольский - Мне только снится жизнь моя (2004) [FLAC|Lossless]<Rock>


Константин Никольский - Мне только снится жизнь моя (2004)
Год: 2004
Жанр: Rock
Продолжительность: 01:15:15

Кодек: FLAC
Битрейт: Lossless

Трек лист:
01. Мне только снится жизнь моя [05:24]
02. Облако [02:56]
03. Зеркало мира [05:08]
04. Один взгляд назад [03:37]
05. Ночная птица [04:20]
06. Мой друг художник и поэт [06:05]
07. Птицы белые мои [04:38]
08. Музыкант [05:17]
09. Я сам из тех [03:54]
10. Воскресенье [06:23]
11. Прошедший день [05:12]
12. Я бреду по бездорожью [05:42]
13. От любви к любви [05:29]
14. Без цели и без рассчёта [05:06]
15. Растаяла дымка сквозная [05:59]

Отчёт ЕАС:

Код:

Exact Audio Copy V0.99 prebeta 5 from 4. May 2009

Отчёт EAC об извлечении, выполненном 13. июня 2012, 1:21

Константин Никольский / Мне только снится жизнь моя

Дисковод: Optiarc DVD RW AD-5200A   Adapter: 2  ID: 0

Режим чтения                 : Достоверность
Использование точного потока : Да
Отключение кэша аудио        : Да
Использование указателей C2  : Нет

Коррекция смещения при чтении                     : 48
Способность читать области Lead-in и Lead-out     : Нет
Заполнение пропущенных сэмплов тишиной            : Да
Удаление блоков с тишиной в начале и конце        : Нет
При вычислениях CRC использовались нулевые сэмплы : Нет
Интерфейс                                         : Встроенный Win32-интерфейс для Win NT/2000

Выходной формат          : Пользовательский кодировщик
Выбранный битрейт        : 1024 kBit/s
Качество                 : Высокий
Добавление ID3-тэга      : Нет
Утилита сжатия           : C:\Program Files\Exact Audio Copy\FLAC\FLAC.EXE
Дополнительные параметры : -8 -V -T "ARTIST=%a" -T "TITLE=%t" -T "ALBUM=%g" -T "DATE=%y" -T "TRACKNUMBER=%n" -T "GENRE=%m" -T "COMMENT=EAC FLAC -8" %s

TOC извлечённого CD

     Трек |   Старт  | Длительность | Начальный сектор | Конечный сектор
    ---------------------------------------------------------------------
       1  |  0:00.00 |    5:26.21   |           0      |      24470
       2  |  5:26.21 |    2:58.12   |       24471      |      37832
       3  |  8:24.33 |    5:10.19   |       37833      |      61101
       4  | 13:34.52 |    3:39.73   |       61102      |      77599
       5  | 17:14.50 |    4:22.05   |       77600      |      97254
       6  | 21:36.55 |    6:07.30   |       97255      |     124809
       7  | 27:44.10 |    4:40.67   |      124810      |     145876
       8  | 32:25.02 |    5:19.07   |      145877      |     169808
       9  | 37:44.09 |    3:56.00   |      169809      |     187508
      10  | 41:40.09 |    6:25.52   |      187509      |     216435
      11  | 48:05.61 |    5:14.63   |      216436      |     240048
      12  | 53:20.49 |    5:44.06   |      240049      |     265854
      13  | 59:04.55 |    5:31.35   |      265855      |     290714
      14  | 64:36.15 |    5:08.30   |      290715      |     313844
      15  | 69:44.45 |    5:59.15   |      313845      |     340784

Характеристики диапазона извлечения и сообщения об ошибках

Выбранный диапазон

     Имя файла C:\Users\Игорь\Desktop\Константин Никольский - Мне только снится жизнь моя.wav

     Пиковый уровень 93.3 %
     Качество диапазона 100.0 %
     CRC копии 40C228FB
     Копирование... OK

Ошибок не произошло

Конец отчёта

Отчёт auCDtect Task manager:

Код:

-----------------------

DON'T MODIFY THIS FILE

-----------------------

PERFORMER: auCDtect Task Manager, ver. 1.5.1RC6 build 1.5.1.7
Copyright (c) 2008-2010 y-soft. All rights reserved
http://y-soft.org

ANALYZER: auCDtect: CD records authenticity detector, version 0.8.2
Copyright (c) 2004 Oleg Berngardt. All rights reserved.
Copyright (c) 2004 Alexander Djourik. All rights reserved.

FILE: Константин Никольский - Мне только снится жизнь моя.flac
  Size: 545654464 Hash: ADD7F8A3ADB191C9B2A5E34F16D51602 Accuracy: -m0
  Conclusion: CDDA 100%
  Signature: 3975B6D7073BCF2B671A49494501A14769A0EF5D
Детали торрента:
Название:Константин Никольский - Мне только снится жизнь моя (2004) [FLAC|Lossless]<Rock>
Дата добавления:13 Июн 2012 01:00:05
Размер:520 MB
Раздают:1
Качают:0
Форум:Русский Рок (Lossless)

All rights reserved © 2015-2018