TORRENTS45.XYZ

Скачать Мир фантастики: Пятый элемент: Киноляпы и интересные факты (2006) DVDRip


Мир фантастики: Пятый элемент: Киноляпы и интересные факты (2006) DVDRip
Русское название: Мир фантастики: Пятый элемент: Киноляпы и интересные факты
Режиссер / Телекомпания: Люк Бессон
Год выпуска: 2006
Жанр: Документальный

Описание:
Давайте рассмотрим киноляп в фильме 1998 года «Армагеддон» с небезызвестным Брюсом Уил-лисом. Как мы все хорошо помним, в конце фильма Брюс Уиллис погибает, взрываясь вместе с гигантским астероидом. А вот уже другой фильм 2001 года — «Пятый элемент», и в нем Брюс Уиллис, как ни странно, живой. Киноляп? Киноляп! Это, как вы догадались, шутка, хотя в каждой шутке есть доля правды. И доля эта в том, что говорить мы сегодня будем как раз о втором упомянутом фильме — «Пятый элемент». Шедевральное творение Люка Бессона знакомо, наверное, каждому из вас. Но даже известные режиссеры не избегают промахов. Многие из этих ошибок вряд ли будут заметны рядовому зрителю, однако заставят внимательных кинолюбителей смотреть на персонажей с недоумением, задаваясь одним вопросом: «Как он это сделал?». Возьмем, к примеру, сцену, где Корбен разбирается с установкой камней в нужные позиции. Первым он берет «водный» камень из рук Корнелиуса, а в следующее мгновение у него в руках оказывается уже «огненный» камень. И Корбен забирает «водный» камень у Корнелиуса во второй раз. Это лишь одна из тех ошибок режиссера, о которых вы узнаете, посмотрев видеоматериал «Пятый элемент. Киноляпы и интересности». Если же говорить об интересностях, то таковых в фильме тоже огромное количество. Даты дней рождений режиссера и некоторых людей, создававших спецэффекты к фильму, интересные имена некоторых второстепенных героев, особенности адаптации фильма в некоторых странах — этому посвящена вторая половина ролика.



Продолжительность: 0:09:04

Перевод: Отсутствует
Язык субтитров: Русский
Вид субтитров: Вшитые

Видеокодек: Xvid
Битрейт видео: ~1 795 Кбит/сек
Размер кадра: 720x448
Качество видео: DVDRip
Аудиокодек: MP3
Битрейт аудио: 128 Кбит/сек

MediaInfo

Код:
Общее
Полное имя                               : D:\The.Fifth.Element.Kinolyapy.2006.DVDRip.XviD.avi
Формат                                   : AVI
Формат/Информация                        : Audio Video Interleave
Размер файла                             : 126 Мбайт
Продолжительность                        : 9 м. 4 с.
Общий поток                              : 1936 Кбит/сек
Программа кодирования                    : Lavf52.105.0

Видео
Идентификатор                            : 0
Формат                                   : MPEG-4 Visual
Профиль формата                          : Simple@L3
Параметр BVOP формата                    : Нет
Параметр QPel формата                    : Нет
Параметр GMC формата                     : Без точки перехода
Параметр матрицы формата                 : Default (H.263)
Идентификатор кодека                     : XVID
Идентификатор кодека/Подсказка           : XviD
Продолжительность                        : 9 м. 4 с.
Битрейт                                  : 1795 Кбит/сек
Ширина                                   : 720 пикселей
Высота                                   : 448 пикселей
Соотношение сторон                       : 1,607
Частота кадров                           : 29,970 кадров/сек
Цветовое пространство                    : YUV
Субдискретизация насыщенности            : 4:2:0
Битовая глубина                          : 8 бит
Тип развёртки                            : Прогрессивная
Метод сжатия                             : С потерями
Бит/(Пиксели*Кадры)                      : 0.186
Размер потока                            : 117 Мбайт (93%)
Библиотека кодирования                   : XviD 63

Аудио
Идентификатор                            : 1
Формат                                   : MPEG Audio
Версия формата                           : Version 1
Профиль формата                          : Layer 3
Режим                                    : Joint stereo
Расширение режима                        : MS Stereo
Идентификатор кодека                     : 55
Идентификатор кодека/Подсказка           : MP3
Продолжительность                        : 9 м. 4 с.
Вид битрейта                             : Постоянный
Битрейт                                  : 128 Кбит/сек
Каналы                                   : 2 канала
Частота                                  : 44,1 КГц
Метод сжатия                             : С потерями
Размер потока                            : 8,31 Мбайт (7%)
Выравнивание                             : Соединение по промежуткам
Продолжительность промежутка             : 26  мс. (0,78 видеокадр)
Библиотека кодирования                   : LAME3.98.4

Скриншоты:



Смотреть Online

Детали торрента:
Название:Мир фантастики: Пятый элемент: Киноляпы и интересные факты (2006) DVDRip
Дата добавления:11 Июн 2012 01:26:47
Размер:126 MB
Раздают:
Качают:0
Форум:Остальное

All rights reserved © 2015-2019