TORRENTS45.XYZ

Скачать Цепь / Cord / Hide and Seek (2000) DVDRip


Цепь / Cord / Hide and Seek
Русское название: Цепь
Оригинальное название: Cord / Hide and Seek
Год выпуска: 2000

Жанр: Триллер, Драма

Описание фильма:
Иногда материнская любовь не знает границ. Молодая семейная пара, Энн и Джек, несколько лет безуспешно пытаются стать родителями. У Хелен и Фрэнка та же проблема, но они выбирают другой путь ее решения.
Похитив Энн и инсценировав ее смерть, они надеются, что она выносит их ребенка, а затем от нее можно будет избавиться. Но когда из трех родителей двое стоят на грани безумия, материнство оборачивается не рождением, а смертью…

Режиссер: Сидни Дж. Фьюри
Актеры: Дэрил Ханна, Дженнифер Тилли, Брюс Гринвуд, Винсент Галло, Джоанна Блэк, Шарон Байер, Чад Брюс, Ванесса МакРэй, Блейк Тейлор...

Качество видео: DVDRip
Продолжительность: 01:35:41

Перевод: Профессиональный (многоголосый закадровый)

Видео: XviD, 720x384 (1.88:1), 1846 kbps, 0.26 bit/pix
Аудио: 48 kHz, AC3 Dolby Digital, 2/0 (L,R) ch, 192 kbps

MediaInfo:

Общее
Полное имя : C:\Users\ZIM\TORRENTS\Cord\Цепь.2000.DVDRiP.avi
Формат : AVI
Формат/Информация : Audio Video Interleave
Размер файла : 1,37 Гбайт
Продолжительность : 1 ч. 35 м.
Общий поток : 2045 Кбит/сек
Программа кодирования : VirtualDubMod 1.5.4.1 (build 2178/release)
Библиотека кодирования : VirtualDubMod build 2178/release

Видео
Идентификатор : 0
Формат : MPEG-4 Visual
Профиль формата : Advanced Simple@L5
Параметр BVOP формата : 1
Параметр QPel формата : Нет
Параметр GMC формата : Без точки перехода
Параметр матрицы формата : Выборочная
Идентификатор кодека : XVID
Идентификатор кодека/Подсказка : XviD
Продолжительность : 1 ч. 35 м.
Битрейт : 1846 Кбит/сек
Ширина : 720 пикселей
Высота : 384 пикселя
Соотношение сторон : 1,85:1
Частота кадров : 25,000 кадров/сек
Цветовое пространство : YUV
Субдискретизация насыщенности : 4:2:0
Битовая глубина : 8 бит
Тип развёртки : Прогрессивная
Метод сжатия : С потерями
Бит/(Пиксели*Кадры) : 0.267
Размер потока : 1,23 Гбайт (90%)
Библиотека кодирования : XviD 1.1.2 (UTC 2006-11-01)

Аудио
Идентификатор : 1
Формат : AC-3
Формат/Информация : Audio Coding 3
Расширение режима : CM (complete main)
Параметр Endianness формата : Big
Идентификатор кодека : 2000
Продолжительность : 1 ч. 35 м.
Вид битрейта : Постоянный
Битрейт : 192 Кбит/сек
Каналы : 2 канала
Расположение каналов : Front: L R
Частота : 48,0 КГц
Битовая глубина : 16 бит
Метод сжатия : С потерями
Размер потока : 131 Мбайт (9%)
Выравнивание : Разделение по промежуткам
Продолжительность промежутка : 96 мс. (2,40 видеокадра)
Время предзагрузки промежутка : 96 мс.



Смотреть Online

Детали торрента:
Название:Цепь / Cord / Hide and Seek (2000) DVDRip
Дата добавления:06 Июн 2012 18:01:24
Размер:1,37 GB
Раздают:
Качают:0
Форум:Зарубежные Фильмы (HD*Rip/LQ, DVDRip, SATRip, VHSRip)

All rights reserved © 2015-2019