TORRENTS45.XYZ

Скачать Таинственные миры. Цивилизация Анасази / Secret Worlds. The civilization of the Anasazi (2009) HDTVRip


Таинственные миры. Цивилизация Анасази / Secret Worlds. The civilization of the Anasazi (2009) HDTVRip
Релиз группа: RG torrents45.xyzcTV
Автор Rip'а: skorpionN

Русское название: Таинственные миры. Цивилизация Анасази
Оригинальное название: Secret Worlds. The civilization of the Anasazi
Режиссер / Телекомпания: Morningstar Entertainment
Год выпуска: 2009
Жанр: Документальный

Описание:
Культура Анасази, или предки пуэбло — доисторическая индейская культура, существовавшая на территории современного региона на юго-западе США, известного как Четыре угла (штаты Колорадо, Юта, Аризона, Нью-Мексико). Для культуры анасази был характерен собственный стиль керамики и сооружения жилищ.

Продолжительность: 00:48:05

Перевод: Одноголосый закадровый, профессиональный

Видеокодек: Xvid
Битрейт видео: ~Xvid 25.00fps 1797kbps
Размер кадра: 720x400
Качество видео: HDTVRip
Аудиокодек: AC3
Битрейт аудио: Dolby AC3 48000Hz stereo 192kbps

MediaInfo:

Формат : AVI
Формат/Информация : Audio Video Interleave
Размер файла : 688 Мбайт
Продолжительность : 48 м.
Общий поток : 1999 Кбит/сек
Программа кодирования : VirtualDubMod 1.5.10.3 | www.virtualdub-fr.org || (build 2550/release)
Библиотека кодирования : VirtualDubMod build 2550/release

Видео
Идентификатор : 0
Формат : MPEG-4 Visual
Профиль формата : Advanced Simple@L5
Параметр BVOP формата : 2
Параметр QPel формата : Нет
Параметр GMC формата : Без точки перехода
Параметр матрицы формата : Default (H.263)
Идентификатор кодека : XVID
Идентификатор кодека/Подсказка : XviD
Продолжительность : 48 м.
Битрейт : 1798 Кбит/сек
Ширина : 720 пикс.
Высота : 400 пикс.
Соотношение сторон : 16:9
Частота кадров : 25,000 кадр/сек
Цветовое пространство : YUV
Подвыборка цветности : 4:2:0
Битовая глубина : 8 бит
Тип развёртки : Прогрессивная
Метод сжатия : С потерями
Бит/(Пиксели*Кадры) : 0.250
Размер потока : 618 Мбайт (90%)
Библиотека кодирования : XviD 1.2.1 (UTC 2008-12-04)

Аудио
Идентификатор : 1
Формат : AC-3
Формат/Информация : Audio Coding 3
Расширение режима : CM (complete main)
Идентификатор кодека : 2000
Продолжительность : 48 м.
Вид битрейта : Постоянный
Битрейт : 192 Кбит/сек
Канал(ы) : 2 канала(ов)
Расположение каналов : Front: L R
Частота : 48,0 КГц
Битовая глубина : 16 бит
Метод сжатия : С потерями
Размер потока : 66,0 Мбайт (10%)
Выравнивание : Разделение по промежуткам
Продолжительность промежутка : 40 мс. (1,00 видеокадр)
Время предзагрузки промежутка : 500 ms
Таинственные миры. Остров Пасхи
Таинственные миры. Иерусалим. Тайна сокровищ
Таинственные миры. Цивилизация Анасази
Таинственные миры. Цивилизация Майя

Скриншоты:




Детали торрента:
Название:Таинственные миры. Цивилизация Анасази / Secret Worlds. The civilization of the Anasazi (2009) HDTVRip
Дата добавления:31 Май 2012 17:48:25
Размер:688 MB
Раздают:
Качают:0
Форум:Тайны и Загадки

All rights reserved © 2015-2018