TORRENTS45.XYZ

Скачать BBC. Большой Барьерный риф / Great Barrier Reef (3 серии из 3) (2011) BDRip [H.264/720p]


BBC. Большой Барьерный риф / Great Barrier Reef
3 серии из 3
Русское название: Большой Барьерный риф
Оригинальное название: Great Barrier Reef
Режиссер / Телекомпания: James Brickell
Год выпуска: 2011

Жанр: Документальный

Описание:
Monty Halls исследует Большой Барьерный риф в Австралии, одно из природных чудес света с крупнейшей живой структурой на нашей планете.



Продолжительность: 3 х ~ 00:59:00 (серия)

Перевод: Одноголосый закадровый, профессиональный

Список серий:
Эпизод 1. Чудо Природы
Эпизод 2. От рифа До Тропического леса
Эпизод 3. На рифе и за его пределами

Качество видео: BDRip
формат: МКV
Видеокодек: MPEG-4 AVC/H.264
Битрейт видео: ~ 5646 - 7987 kb/s
Размер кадра: 1280x720
Качество видео: BDRip
Аудиокодек: DTS
Битрейт аудио: ~755 kb/s

Аудио#1:Russian: DTS, 2/0 (L,R) ch, ~755 kb/s |Одноголосый закадровый, Ю. Сербин|
Аудио#2: English: DTS, 2.0 ~755 kb/s
Субтитры: Английские


Скриншоты:




Раздача ведется путем добавления серий

по мере их появления.

MediaInfo:

Формат : Matroska
Версия формата : Version 2
Размер файла : 3,45 Гбайт
Продолжительность : 58 м.
Общий поток : 8372 Кбит/сек
Название фильма : Great Barier Reef EP01 Nature`s Miracle (2011) - Release for HDCLUB
Дата кодирования : UTC 2012-05-27 16:08:21
Программа кодирования : mkvmerge v3.4.0 ('Rapunzel') built on May 15 2010 09:38:20
Библиотека кодирования : libebml v0.8.0 + libmatroska v0.9.0

Видео
Идентификатор : 1
Формат : AVC
Формат/Информация : Advanced Video Codec
Профиль формата : High@L4.1
Параметр CABAC формата : Да
Параметр ReFrames формата : 8 кадров
Идентификатор кодека : V_MPEG4/ISO/AVC
Продолжительность : 58 м.
Битрейт : 6696 Кбит/сек
Ширина : 1280 пикселей
Высота : 720 пикселей
Соотношение сторон : 16:9
Частота кадров : 25,000 кадров/сек
Цветовое пространство : YUV
Субдискретизация насыщенности : 4:2:0
Битовая глубина : 8 бит
Тип развёртки : Прогрессивная
Бит/(Пиксели*Кадры) : 0.291
Размер потока : 2,76 Гбайт (80%)
Заголовок : Release for HDCLUB
Библиотека кодирования : x264 core 122 r2184 5c85e0a
Настройки программы : cabac=1 / ref=8 / deblock=1:-3:-3 / analyse=0x3:0x113 / me=umh / subme=10 / psy=1 / psy_rd=1.00:0.00 / mixed_ref=1 / me_range=32 / chroma_me=1 / trellis=2 / 8x8dct=1 / cqm=0 / deadzone=21,11 / fast_pskip=0 / chroma_qp_offset=-2 / threads=18 / sliced_threads=0 / nr=0 / decimate=0 / interlaced=0 / bluray_compat=0 / constrained_intra=0 / bframes=8 / b_pyramid=2 / b_adapt=2 / b_bias=0 / direct=3 / weightb=1 / open_gop=0 / weightp=2 / keyint=250 / keyint_min=23 / scenecut=40 / intra_refresh=0 / rc_lookahead=60 / rc=crf / mbtree=0 / crf=18.0 / qcomp=0.60 / qpmin=0 / qpmax=69 / qpstep=4 / vbv_maxrate=50000 / vbv_bufsize=62500 / crf_max=0.0 / nal_hrd=none / ip_ratio=1.40 / pb_ratio=1.30 / aq=2:0.80
Язык : English
Default : Нет
Forced : Нет
Коэффициенты матрицы : BT.709-5, BT.1361, IEC 61966-2-4 709, SMPTE RP177

Аудио #1
Идентификатор : 2
Формат : DTS
Формат/Информация : Digital Theater Systems
Идентификатор кодека : A_DTS
Продолжительность : 58 м.
Вид битрейта : Постоянный
Битрейт : 755 Кбит/сек
Каналы : 2 канала
Расположение каналов : Front: L R
Частота : 48,0 КГц
Битовая глубина : 16 бит
Метод сжатия : С потерями
Размер потока : 318 Мбайт (9%)
Заголовок : DTS 2.0 @ 768 kbps - Одноголосый закадровый, Ю.Сербин
Язык : Russian
Default : Да
Forced : Нет

Аудио #2
Идентификатор : 3
Формат : DTS
Формат/Информация : Digital Theater Systems
Идентификатор кодека : A_DTS
Продолжительность : 58 м.
Вид битрейта : Постоянный
Битрейт : 755 Кбит/сек
Каналы : 2 канала
Расположение каналов : Front: L R
Частота : 48,0 КГц
Битовая глубина : 16 бит
Метод сжатия : С потерями
Размер потока : 318 Мбайт (9%)
Заголовок : DTS 2.0 @ 768 kbps
Язык : English
Default : Нет
Forced : Нет

Текст
Идентификатор : 4
Формат : UTF-8
Идентификатор кодека : S_TEXT/UTF8
Идентификатор кодека/Информация : UTF-8 Plain Text
Язык : English
Default : Нет
Forced : Нет

Меню
00:00:00.000 : en:00:00:00.000
00:09:03.520 : en:00:09:03.520
00:21:33.760 : en:00:21:33.760
00:29:33.880 : en:00:29:33.880
00:39:26.520 : en:00:39:26.520
00:49:55.160 : en:00:49:55.160

Смотреть Online

Детали торрента:
Название:BBC. Большой Барьерный риф / Great Barrier Reef (3 серии из 3) (2011) BDRip [H.264/720p]
Дата добавления:21 Июл 2012 09:24:26
Размер:10,4 GB
Раздают:1
Качают:0
Форум:BBC

All rights reserved © 2015-2019