TORRENTS45.XYZ

Скачать NG. Ангкор-Ват. Жемчужина Древней Азии / Glories Of Angkor Wat (1999) DVDRip


NG. Ангкор-Ват. Жемчужина Древней Азии / Glories Of Angkor Wat (1999) DVDRip
Русское название: Ангкор-Ват. Жемчужина Древней Азии
Оригинальное название: Glories Of Angkor Wat
Режиссер / Телекомпания: Джеймс Беррет
Год выпуска: 1999
Жанр: Документальный

Описание:
Камбоджийский город Ангкор, впечатляющий по своим масштабам комплекс каменных храмов, был оставлен людьми более 500 лет назад. Жемчужина города, его самый крупный храм Ангкор-Ват - это гигантская каменная карта мироздания и одно из самых замечательных творений человечества. В 1858 году молодой французский натуралист Анри Мюо, отвоевывая у джунглей один храм за другим, неожиданно для себя обнаружил затаившийся в зарослях город Ангкор. Мюо составил волнующее описание самых загадочных и романтических руин Азии. Прошло еще 50 лет, прежде чем увидела свет летопись затерянной цивилизации Камбоджи - найденный учеными дневник Чжоу Дагоуна, китайского посланника XIII века. Этот удивительный документ живописал Ангкор в зените его славы - людную метрополию, город ослепительного богатства, могущественных принцев и экзотических обычаев.

Продолжительность: 00:52:41

Перевод: Одноголосый закадровый, профессиональный

Видеокодек: DivX 5
Битрейт видео: ~1 738 Kbps
Размер кадра: 512/384
Качество видео: DVDRip
Аудиокодек: MPEG Layer 3
Битрейт аудио: 107 Кбит/сек, 48,0 КГц, 2ch

MediaInfo:

General
Complete name : D:\Ангкор-Ват жемчужина Древней Азии.avi
Format : AVI
Format/Info : Audio Video Interleave
File size : 700 MiB
Duration : 52mn 41s
Overall bit rate : 1 858 Kbps
Writing application : VirtualDubMod 1.5.4.1 (build 2178/release)
Writing library : VirtualDubMod build 2178/release

Video
ID : 0
Format : MPEG-4 Visual
Format settings, BVOP : Yes
Format settings, QPel : No
Format settings, GMC : No warppoints
Format settings, Matrix : Default (H.263)
Muxing mode : Packed bitstream
Codec ID : DX50
Codec ID/Hint : DivX 5
Duration : 52mn 41s
Bit rate : 1 738 Kbps
Width : 512 pixels
Height : 384 pixels
Display aspect ratio : 4:3
Frame rate : 25.000 fps
Color space : YUV
Chroma subsampling : 4:2:0
Bit depth : 8 bits
Scan type : Progressive
Bits/(Pixel*Frame) : 0.354
Stream size : 655 MiB (94%)
Writing library : DivX 6.6.1.4

Audio
ID : 1
Format : MPEG Audio
Format version : Version 1
Format profile : Layer 3
Mode : Joint stereo
Mode extension : MS Stereo
Codec ID : 55
Codec ID/Hint : MP3
Duration : 52mn 41s
Bit rate mode : Variable
Bit rate : 107 Kbps
Nominal bit rate : 128 Kbps
Channel(s) : 2 channels
Sampling rate : 48.0 KHz
Stream size : 40.3 MiB (6%)
Alignment : Aligned on interleaves
Interleave, duration : 24 ms (0.60 video frame)
Interleave, preload duration : 510 ms
Writing library : LAME3.97
Encoding settings : -m j -V 4 -q 2 -lowpass 17 --abr 128
Language : Russian
Скриншоты:


Детали торрента:
Название:NG. Ангкор-Ват. Жемчужина Древней Азии / Glories Of Angkor Wat (1999) DVDRip
Дата добавления:26 Май 2012 12:40:14
Размер:700 MB
Раздают:2
Качают:0
Форум:National Geographic

All rights reserved © 2015-2018