TORRENTS45.XYZ

Скачать Во всем виноват посыльный / Blame It on the Bellboy (1992) DVDRip


Во всем виноват посыльный / Blame It on the Bellboy
Русское название: Во всем виноват посыльный
Оригинальное название: Blame It on the Bellboy
Год выпуска: 1992
Жанр: Комедия

Описание фильма:
Отель «Габриэлла» повидал на своем веку много забавного, но такая неразбериха в его стенах царит впервые! Педантичный киллер Лоутон охотится за одинокой леди, которую ему не заказывали. Брокер по недвижимости Ортон пытается навязать сделку толпе угрюмых мафиози. А ищущий любви на стороне женатый Хортон приходит на свидание туда, где настроились на деловую встречу. Кто ж виноват в этом нагромождении ошибок? А виноват простодушный посыльный отеля, перепутавший похожие фамилии постояльцев и передавший каждому послание, предназначенное для другого. И этой малости хватило, чтобы вызвать целую лавину анекдотических недоразумений.

Режиссер: Марк Херман
Актеры: Дадли Мур /Dudley Moore/, Брайан Браун /Bryan Brown/, Ричард Гриффитс /Richard Griffiths/, Пэтси Кенсит /Patsy Kensit/, Бронсон Пинчот /Bronson Pinchot/, Андреас Катсулас /Andreas Katsulas/...
Качество видео: DVDRip
Продолжительность: 01:18:29
Перевод: Дублированный / Профессиональный (двуголосый, закадровый) / Авторский (одноголосый, закадровый)

Видео: XviD build 50, 720x384 (1.88:1), 2134 kbps avg, 0.32 bit/pix
Аудио 1: AC3 Dolby Digital, 2/0 (L,R) ch, 160.00 kbps avg - дублированный
Аудио 2: AC3 Dolby Digital, 2/0 (L,R) ch, 160.00 kbps avg - двуголосый
Аудио 3: AC3 Dolby Digital, 2/0 (L,R) ch, 192.00 kbps avg - одноголосый

MediaInfo:

Общее
Полное имя : C:\ZIM\Torrents\Blame_It_on_the_Bellboy\Во всем виноват посыльный 1992 DVDRip.avi
Формат : AVI
Формат/Информация : Audio Video Interleave
Размер файла : 1,46 Гбайт
Продолжительность : 1 ч. 18 м.
Общий поток : 2665 Кбит/сек
Программа кодирования : VirtualDubMod 1.5.10.2 (build 2540/release)
Библиотека кодирования : VirtualDubMod build 2540/release

Видео
Идентификатор : 0
Формат : MPEG-4 Visual
Профиль формата : Advanced Simple@L5
Параметр BVOP формата : 2
Параметр QPel формата : Нет
Параметр GMC формата : Без точки перехода
Параметр матрицы формата : Выборочная
Идентификатор кодека : XVID
Идентификатор кодека/Подсказка : XviD
Продолжительность : 1 ч. 18 м.
Битрейт : 2134 Кбит/сек
Ширина : 720 пикселей
Высота : 384 пикселя
Соотношение сторон : 1,875
Частота кадров : 23,976 кадра/сек
Цветовое пространство : YUV
Субдискретизация насыщенности : 4:2:0
Битовая глубина : 8 бит
Тип развёртки : Прогрессивная
Метод сжатия : С потерями
Бит/(Пиксели*Кадры) : 0.322
Размер потока : 1,17 Гбайт (80%)
Библиотека кодирования : XviD 1.2.1 (UTC 2008-12-04)

Аудио #1
Идентификатор : 1
Формат : AC-3
Формат/Информация : Audio Coding 3
Расширение режима : CM (complete main)
Параметр Endianness формата : Big
Идентификатор кодека : 2000
Продолжительность : 1 ч. 18 м.
Вид битрейта : Постоянный
Битрейт : 160 Кбит/сек
Каналы : 2 канала
Расположение каналов : Front: L R
Частота : 48,0 КГц
Битовая глубина : 16 бит
Метод сжатия : С потерями
Размер потока : 89,8 Мбайт (6%)
Выравнивание : Разделение по промежуткам
Продолжительность промежутка : 42 мс. (1,00 видеокадр)
Время предзагрузки промежутка : 500 мс.

Аудио #2
Идентификатор : 2
Формат : AC-3
Формат/Информация : Audio Coding 3
Расширение режима : CM (complete main)
Параметр Endianness формата : Big
Идентификатор кодека : 2000
Продолжительность : 1 ч. 18 м.
Вид битрейта : Постоянный
Битрейт : 160 Кбит/сек
Каналы : 2 канала
Расположение каналов : Front: L R
Частота : 48,0 КГц
Битовая глубина : 16 бит
Метод сжатия : С потерями
Размер потока : 89,8 Мбайт (6%)
Выравнивание : Разделение по промежуткам
Продолжительность промежутка : 42 мс. (1,00 видеокадр)
Время предзагрузки промежутка : 500 мс.

Аудио #3
Идентификатор : 3
Формат : AC-3
Формат/Информация : Audio Coding 3
Расширение режима : CM (complete main)
Параметр Endianness формата : Big
Идентификатор кодека : 2000
Продолжительность : 1 ч. 18 м.
Вид битрейта : Постоянный
Битрейт : 192 Кбит/сек
Каналы : 2 канала
Расположение каналов : Front: L R
Частота : 48,0 КГц
Битовая глубина : 16 бит
Метод сжатия : С потерями
Размер потока : 108 Мбайт (7%)
Выравнивание : Разделение по промежуткам
Продолжительность промежутка : 42 мс. (1,00 видеокадр)
Время предзагрузки промежутка : 500 мс.



Смотреть Online

http://moonwalk.cc/video/3570b92439b27c48/iframe
Детали торрента:
Название:Во всем виноват посыльный / Blame It on the Bellboy (1992) DVDRip
Дата добавления:17 Май 2012 09:29:13
Размер:1,46 GB
Раздают:
Качают:0
Форум:Зарубежные Фильмы (HD*Rip/LQ, DVDRip, SATRip, VHSRip)

All rights reserved © 2015-2018