TORRENTS45.XYZ

Скачать Смертельное оружие. Квадрология / Lethal Weapon. Quadrology (1987, 1989, 1992, 1998) BDRip


Смертельное оружие. Квадрология / Lethal Weapon. Quadrology (1987, 1989, 1992, 1998) BDRip
Год выпуска: 1987 - 1998
Производство: США
Жанр: боевик, триллер, криминал, комедия

Описание фильмов:
Полная коллекция (квадрология) фильмов о жизни и работе двух полицейских.
Безжалостного полицейского Мартина Риггза из Лос-Анджелеса считают психически неуравновешенным. Этот “одинокий волк” постоянно подвергает себя смертельной опасности и всё ещё не избавился от потрясений, пережитых во Вьетнаме. А его напарник - спокойный, невозмутимый блюститель законности, добропорядочный семьянин, чернокожий Роджер Мёрто. Преодолевая первоначальную настороженность по отношению друг к другу, они постепенно находят общий язык и взаимопонимание…
(Подробное описание фильмов в темах)

Режиссер: Ричард Доннер
Актеры: Мэл Гибсон, Дэнни Гловер, Джо Пеши...

Перевод: Дублированный
Автор рипа: ural28

Общaя продолжительность: ~ 07:49:20

Дополнительная информация о коллекции:

Источник рипаhdclub


Смертельное оружие / Lethal Weapon (1987) BDRip

Смертельное оружие / Lethal Weapon (1987) BDRip
Русское название: Смертельное оружие
Оригинальное название: Lethal Weapon
Год выпуска: 1987
Страна: США
Жанр: боевик, триллер, криминал
Кинокомпания: Silver Pictures, Warner Bros. Pictures Co.

Описание фильма: Обаяние этого вечного приключенческого сюжета о паре полицейских — в великолепной игре Гибсона и Гловера. Первый — слегка чокнутый смельчак Риггз, которому из-за его легендарного вьетнамского прошлого и не менее легендарного настоящего дали уважительную кличку «смертельное оружие». Его чернокожий напарник Мертаф — человек куда более земной, обремененный семьей и предрассудками…

Режиссер: Ричард Доннер
Актеры: Мэл Гибсон, Дэнни Гловер, Гэри Бьюзи, Митч Райан, Том Аткинс, Дарлен Лав, Трэйси Вульф, Джеки Суонсон, Дэймон Хайнс, Эбони Смит, Бил Калменсон, Лусиа Нафф, Патрик Камерон, Дон Гордон, Джимми Ф. Скэггз, Джейсон Ронард, Блэкки Дэммет, Гэйл Боуман, Роберт Фол, Сэльма Арчерд, Ричард Б. Уайтакер, Мэри Эллен Трейнор, Стив Кэхэн, Джек Тибо, Эд О'Росс, Густав Винтас, Пол Туэрпе, Чад Хэйес, Крис Д. Жардинс, Свен-Оле Торсен, Питер, Жиль Колер, Седрик Адамс, Жжим Дж. Послоф, Аль Леонг, Майкл Шейнер, Натали Зиммерман, Дебора Дисмукс, Шерил Бэйкер, Терри Линн Досс, Шерон К. Брик, Дональд Гуден, Альфонсо Филипп Музо, Шон Хантер, Ленни Джулиано, Генри Браун, Брайн Стром, Тереза Кадотани, Фрэнк Рейнхард, Джон О'Нейлл…

Продолжительность: 01:49:37
Перевод: Дублированный
Субтитры: отсутствуют
Автор рипа: ural28



Дата мировой премьеры: 6 марта 1987
Дата выхода DVD релиза: 31 марта 2011, «ВС трейд»
Дата выхода Blu-Ray релиза: 16 ноября 2010, «Юниверсал Пикчерс Рус»

Видеокодек: DivX 5
Битрейт видео: ~2522 kbps
Размер кадра: 632x392
Качество видео: BDRip
Аудиокодек: MP3, 2ch
Битрейт аудио: ~192.00 kbps

MediaInfo:

General
Complete name : lEthAl.wEapOn.1.1987.BDRip.avi
Format : AVI
Format/Info : Audio Video Interleave
Format profile : OpenDML
File size : 2.08 GiB
Duration : 1h 49mn
Overall bit rate : 2 721 Kbps
Writing application : FairUse Wizard
Writing library : The best and REALLY easy backup tool

Video
ID : 0
Format : MPEG-4 Visual
Format settings, BVOP : 2
Format settings, QPel : No
Format settings, GMC : No warppoints
Format settings, Matrix : Default (MPEG)
Codec ID : DX50
Codec ID/Hint : DivX 5
Duration : 1h 49mn
Bit rate : 2 517 Kbps
Width : 632 pixels
Height : 392 pixels
Display aspect ratio : 1.612
Frame rate : 23.976 fps
Color space : YUV
Chroma subsampling : 4:2:0
Bit depth : 8 bits
Scan type : Progressive
Compression mode : Lossy
Bits/(Pixel*Frame) : 0.424
Stream size : 1.93 GiB (92%)
Writing library : DivX 1338m

Audio
ID : 1
Format : MPEG Audio
Format version : Version 1
Format profile : Layer 3
Mode : Joint stereo
Codec ID : 55
Codec ID/Hint : MP3
Duration : 1h 49mn
Bit rate mode : Constant
Bit rate : 192 Kbps
Channel(s) : 2 channels
Sampling rate : 48.0 KHz
Compression mode : Lossy
Stream size : 151 MiB (7%)
Alignment : Aligned on interleaves
Interleave, duration : 42 ms (1.00 video frame)
Interleave, preload duration : 504 ms
Writing library : LAME3.97
Encoding settings : -m j -V 4 -q 2 -lowpass 18.6 -b 192
Скриншоты:



Награды:

3 приза «Имидж» — за фильм, главную мужскую (Дэнни Гловер) и второплановую женскую (Трейси Вулф) роли.

Оскар, 1988 год
Номинации (1):
• Лучший звук

Знаете ли вы, что...

• Франко Джеффирелли решил предложить Мэлу Гибсону роль Гамлета, после того как увидел сцену, где Риггз пытается совершить самоубийство.
• Фильм посвящен памяти Дара Робинсона, известнейшего каскадера, погибшего в автомобильной аварии во время пост-продакшна картины.
• Для фильма были сняты альтернативные начало и концовка, которые можно посмотреть на DVD «Смертельное оружие 4». Изначально фильм должен был начинаться со сцены, в которой Мартин Риггз пьёт в одиночестве в каком-то баре, где к нему пристают несколько отморозков, требующие его деньги. Риггз говорит, что все свои деньги он хранит в банке, а также говорит парням отстать от него. Конечно, они его не слушаются, и Риггз жестоко избивает их. Бармен дает Риггзу бесплатную бутылку спиртного и говорит, чтобы он больше здесь не появлялся. Уже по ходу съёмок Ричард Доннер решил представить Риггза в более дружелюбной манере и снял сцену, где Мартин просыпается в своем трейлере. Альтернативная концовка представляла собой сцену, где Мёрто говорит Риггзу, что подумывает о пенсии, но Мартин отговаривает его от принятия данного решения.
• В одной из сцен фильма на заднем плане можно заметить кинотеатр, где идут «Пропащие ребята» (1987), продюсером которых был Ричард Доннер.
• В сцене, где героиня Джеки Суонсон падает с высокоэтажного здания, Джеки отказалось от услуг дублеров и сама исполнила трюк.
• Количество убитых: 26.
• По словам Гари Бьюзи, он получил роль Джошуа, потому что продюсеры искали актера, способного достоверно изобразить реальную угрозу для персонажа Мэла Гибсона. Бьюзи признает «Смертельное оружие» фильмом, придавшим второе дыхание для его карьеры.
• Леонарду Нимому предлагали поставить фильм, но он отказался, предпочтя поработать над «Тремя мужчинами и младенцем» (1987).
• В фильме Роджеру Мёрто около 50. На момент съёмок Дэнни Гловеру было 40.
• Согласно статье в июньском номере 2007 года «Vanity Fair», кандидатура Брюса Уиллиса рассматривалась на роль Риггза.
• Режиссёрский вариант фильма имеет хронометраж 117 минут.

Рецензия:

Рецензия с сайта КиНОПОиСК от PALPATINE :
Лучший киносериал про полицейских

Смертельное оружие, безусловно, самый яркий и харизматический цикл о паре полицейских (белый и афроамериканец), созданный за всю историю кино. Все картины серии, и даже четвертая часть, служат эталоном полицейского кино. С самой первой части, снятой в 1987 году, сериал держит планку: здесь нет лишних моментов и сцен, юмор и драматургия идеально сбалансированы, режиссура Ричарда Доннера крепка, а актерское исполнение бесподобного Мела Гибсона и неповторимого Денни Гловера заслепляют собой все вокруг!

Особо хочу отметить удачный сценарий Шейна Блека. Начиная с первого Смертельного оружия он показывает себя одним из лучших профессионалов по части криминального жанра и именно Смертельное оружие — эталон криминальной истории с главными героями — полицейскими!.

Смертельное оружие — это фильм, открывший для массового зрителя новую мировую звезду Мела Гибсона. Его маниакальное исполнение роли в первой половине картины просто гениально. Актер просто бесподобно передал психическое состояние своего героя, потерявшего в лице жены абсолютно все. Но также интересно наблюдать за трансформацией Риггса ближе к концу, когда тот находит новые смыслы для жизни, а не заканчивает ее самоубийством.

На контрасте к Гибсону удачно влился в роль Денни Гловер. Его персонаж, уравновешенный полицейский с идеальной семьей, готовящийся уйти на заслуженную пенсию, просто идеально подходит на роль напарника неудержимого Мартина Риггса. На протяжении всего цикла про Смертельное оружие (между прочим — это кличка героя Мела Гибсона) эта пара героев показывает идеальную слаженную игру с массой самоиронии и драматизма. И разница в годах между ними просто не чувствуется. Они самые лучшие. И здесь компромиссов не может быть!

В итоге хочу сказать, что Смертельное оружие заслуженно пользуется славой самого удачного фильма про полицейских. Его стоит пересматривать, и не раз, ведь такие картины встречаются сейчас очень редко. И к тому же оно не выказывает признаков старения. Это стопроцентно великий фильм!

10 из 10

Смертельное оружие 2 / Lethal Weapon 2 (1989) BDRip

Смертельное оружие 2 / Lethal Weapon 2 (1989) BDRip
Русское название: Смертельное оружие 2
Оригинальное название: Lethal Weapon 2
Год выпуска: 1989
Страна: США
Жанр: боевик, триллер, комедия, криминал
Кинокомпания: Silver Pictures, Warner Bros. Pictures Co.

Описание фильма: Мартин и его напарник Роджер напали на след могущественной наркомафии, которой заправляли выходцы из Южно-Африканского Союза. Полиции удалось арестовать одного из мошенников, помогавших мафиозо отмывать их грязные деньги.
Этого важного свидетеля поручили охранять Мартину и Роджеру. Сами бандиты были неуязвимы, так как пользовались дипломатической неприкосновенностью…

Режиссер: Ричард Доннер
Актеры: Мэл Гибсон, Дэнни Гловер, Джо Пеши, Джосс Экленд, Деррик О'Коннор, Пэтси Кензит, Дарлен Лав, Трэйси Вульф, Стив Кэхэн, Марк Ролстон, Дженетт Голдстин, Дин Норрис, Джуни Смит, Нестор Серрано, Филип Суриано, Гранд Л. Буш, Тони Каррейро, Дэймон Хайнс, Эбони Смит, Аллан Дин Мур, Джек МакГи, Пол Туэрпе, Филип Морис Миллер, Шерман Ховард, Брюс Янг, Гай Макк, Дэнни Вайнандс, Пэт Скиппер, Роберт Фол, Вирджиния Шеннон, Дэн Ондрейко, Джим Пиддок, Кеннет Тайгар, Джим Бирдж, Патрик Камерон, Мэри Эллен Трейнор, Дэвид Марсиано, Томми Хинкли, Норм Уилсон, Джинн МакГуайр, Катрин Гаел, Джеймс Оливер, Салим Джайди, Аль Вебер мл., Эдвард Дж. Розен, Джей Делла, Мэриэн Колье, Орландо Боннер, Синтия Барр, Бью Лоттерман …

Продолжительность: 01:54:27
Перевод: Дублированный
Субтитры: отсутствуют
Автор рипа: ural28



Дата мировой премьеры: 7 июля 1989
Дата выхода DVD релиза: 31 марта 2011, «ВС трейд»
Дата выхода Blu-Ray релиза: 16 ноября 2010, «Юниверсал Пикчерс Рус»

Видеокодек: DivX 5
Битрейт видео: ~2156 kbps
Размер кадра: 624x328
Качество видео: BDRip
Аудиокодек: MP3, 2ch
Битрейт аудио: ~192.00 kbps

MediaInfo:

General
Complete name : lEthAl.wEapOn.2.1989.BDRip.avi
Format : AVI
Format/Info : Audio Video Interleave
File size : 1.89 GiB
Duration : 1h 54mn
Overall bit rate : 2 358 Kbps
Writing application : FairUse Wizard
Writing library : The best and REALLY easy backup tool

Video
ID : 0
Format : MPEG-4 Visual
Format settings, BVOP : 2
Format settings, QPel : No
Format settings, GMC : No warppoints
Format settings, Matrix : Default (MPEG)
Codec ID : DX50
Codec ID/Hint : DivX 5
Duration : 1h 54mn
Bit rate : 2 157 Kbps
Width : 624 pixels
Height : 328 pixels
Display aspect ratio : 1.902
Frame rate : 23.976 fps
Color space : YUV
Chroma subsampling : 4:2:0
Bit depth : 8 bits
Scan type : Progressive
Compression mode : Lossy
Bits/(Pixel*Frame) : 0.440
Stream size : 1.72 GiB (91%)
Writing library : DivX 1338m

Audio
ID : 1
Format : MPEG Audio
Format version : Version 1
Format profile : Layer 3
Mode : Joint stereo
Mode extension : MS Stereo
Codec ID : 55
Codec ID/Hint : MP3
Duration : 1h 54mn
Bit rate mode : Constant
Bit rate : 192 Kbps
Channel(s) : 2 channels
Sampling rate : 48.0 KHz
Compression mode : Lossy
Stream size : 157 MiB (8%)
Alignment : Aligned on interleaves
Interleave, duration : 42 ms (1.00 video frame)
Interleave, preload duration : 504 ms
Writing library : LAME3.97
Encoding settings : -m j -V 4 -q 2 -lowpass 18.6 -b 192
Скриншоты:



Награды:

Оскар, 1990 год
Номинации (1):
• Лучший монтаж звука

Знаете ли вы, что...

• Пока семья Мёрто ждет тот самый рекламный ролик, они смотрят «Байки из склепа» (1989), эпизод 1.2 «And All Through The House», премьера которого состоялась 10 июня 1989 года, и где сыграла Мэри Эллен Трэйнор, исполнившая роль доктора Стефании Вудс. Вдобавок, несколько эпизодов «Баек из склепа» были спродюсированы Ричардом Доннером, поставившим данный фильм.
• Имя плотника – МакДжи. Это – настоящее имя актера, сыгравшего данный персонаж (Джек МакДжи).
• Название одеколона, флакон которого разбивается вдребезги во время разрушения трейлера Риггза, - «Hero». В первый раз, когда мы видим Риггза, входящего в свой дом на колесах, можно заметить, что по телевизору идет реклама данного одеколона.
• В сцене, где Лео убирается в доме Риггза, играет песня «I'm Not Scared» британской поп-группы «Eighth Wonder», участницей которой была Пэнси Кенсит, сыгравшая Рику Ван Хаас.
• Коронная фраза Лео «окей-окей-окей» была основана на манере разговора сотрудников парков развлечений «Disneyland», когда они объясняли дорогу к «Fantasyland».
• Изначально Лео должен был быть льстивым и изнеженным персонажам, но Джо Пеши не хотел играть его в такой манере. Он предложил, чтобы Лео был человеком, который слишком старается понравиться всем и каждому.
• Изначально Риггз должен был погибнуть в финальной сцене фильма, но продюсеры решили оставить его в живых, для того чтобы была возможность снять продолжение.
• Сцена разрушения дома на опорах обошлась создателям фильма в более чем $500,000.
• Альтернативный финал фильма: ужин на День благодарения в доме Мёрто, где также присутствуют Риггз и Рика Ван Хаас.
• Количество убитых: 33.
• Режиссёрская версия имеет хронометраж 118 минут.

Рецензия:

Рецензия с сайта КиНОПОиСК от Antosha 96 :
«Герои не умирают на унитазах»

Я всегда любил полицейские боевики. Самым лучшим подобным фильмом, мне кажется, являются «Плохие парни» Майкла Бэя. Но как-то так получилось, что с классикой жанра, «Смертельным оружием» я ознакомился всего пару дней назад. Первая часть мне понравилась, но ничего гениального я в ней не нашёл и заслуженно поставил «восьмёрку». Второй фильм, посмотренный мною вчера, можно смело назвать шедевром.

По сравнению с оригиналом, сиквел стал менее драматическим и более комедийным. Риггз и Мерто постоянно шутят, а чего стоит известная сцена с унитазом, одновременно и комическая, и волнующая.

Зрелищности тоже прибавилось. Полицейская погоня, взрыв дома на сваях, финальная сцена на корабле — все это, безусловно радует глаз.

Сюжет нельзя назвать оригинальным, скорее классическим и проверенным временем.

Мэл Гибсон и Дэнни Гловер сыграли просто отлично, их персонажи, уже полюбившиеся публике, стали ещё дружнее.

Также, очень понравился Лео Гетс в исполнении Джо Пеши. Благодаря ему, фильм пополнился ещё множеством смешных и интересных моментов.

Дубляж неплохой, но вот голос Мерто в отечественном переводе, мне кажется, звучит слишком старчески.

Замечательный фильм!

Иду смотреть третью часть…

10 из 10

Смертельное оружие 3 / Lethal Weapon 3 (1992) BDRip

Смертельное оружие 3 / Lethal Weapon 3 (1992) BDRip
Русское название: Смертельное оружие 3
Оригинальное название: Lethal Weapon 3
Год выпуска: 1992
Страна: США
Жанр: боевик, триллер, комедия, криминал
Кинокомпания: Silver Pictures, Warner Bros. Pictures Co.

Описание фильма: Третий фильм о неустрашимом полицейском Риггсе. На этот раз Мартин и его напарник Роджер сталкиваются с гангстерами, похищающими оружие со склада полиции. Преступную группу, за которой тянется длинный кровавый след, возглавляет бывший сержант Джек Тревис. Найти улики против «грязного» полицейского напарникам помогает Лорна Коул — решительная женщина-полицейский, которая не останавливается перед лицом опасности и уверенно вступает в схватку с противниками…

Режиссер: Ричард Доннер
Актеры: Мэл Гибсон, Дэнни Гловер, Джо Пеши, Рене Руссо, Стюарт Уилсон, Стив Кэхэн, Дарлен Лав, Трэйси Вульф, Дэймон Хайнс, Эбони Смит, Грегори Миллар, Ник Чинланд, Джейсон Рэйнуотер, Алан Скарф, Делорес Холл, Мэри Эллен Трейнор, Марк Пеллегрино, Джон Ченатьемпо, Дэнни Вайнандс, Эндрю Хилл Ньюман, Кеннет Тайгар, Пит Антико, Свен-Оле Торсен, Пол Туэрпе, Вероника Алисино, Генри Браун, Эрик Брайант Уэллс, Мигель А. Нуньес мл., Филип Мун, Бобби Винн, Сильвия Уэбб Уайт, Дэнни 'Биг Блэк' Рэй, Винс Ховард, Пол Хипп, Лоурен Шулер Доннер, Стефен Т. Кэй, Майкл Джордж Миллер, Генри Кинги, Адам Клинеберг, Мишель Ландри, Скотт Брюс, Дел Эмори, Джон Хармс, Джеймс Оливер, Мэриэн Колье, Норман Д. Уилсон, Томас Э. Джис, Джин Уильямс, Сэльма Арчерд, Харви Фишер…

Продолжительность: 01:57:53
Перевод: Дублированный
Субтитры: отсутствуют
Автор рипа: ural28



Дата мировой премьеры: 11 мая 1992
Дата выхода DVD релиза: 31 марта 2011, «ВС трейд»
Дата выхода Blu-Ray релиза: 16 ноября 2010, «Юниверсал Пикчерс Рус»

Видеокодек: DivX 5
Битрейт видео: ~2354 kbps
Размер кадра: 624x328
Качество видео: BDRip
Аудиокодек: MP3, 2ch
Битрейт аудио: ~192.00 kbps

MediaInfo:

General
Complete name : lEthAl.wEapOn.3.1992.BDRip.avi
Format : AVI
Format/Info : Audio Video Interleave
Format profile : OpenDML
File size : 2.10 GiB
Duration : 1h 57mn
Overall bit rate : 2 554 Kbps
Writing application : FairUse Wizard
Writing library : The best and REALLY easy backup tool

Video
ID : 0
Format : MPEG-4 Visual
Format settings, BVOP : 2
Format settings, QPel : No
Format settings, GMC : No warppoints
Format settings, Matrix : Default (MPEG)
Codec ID : DX50
Codec ID/Hint : DivX 5
Duration : 1h 57mn
Bit rate : 2 349 Kbps
Width : 624 pixels
Height : 328 pixels
Display aspect ratio : 1.902
Frame rate : 23.976 fps
Color space : YUV
Chroma subsampling : 4:2:0
Bit depth : 8 bits
Scan type : Progressive
Compression mode : Lossy
Bits/(Pixel*Frame) : 0.479
Stream size : 1.93 GiB (92%)
Writing library : DivX 1338m

Audio
ID : 1
Format : MPEG Audio
Format version : Version 1
Format profile : Layer 3
Mode : Joint stereo
Codec ID : 55
Codec ID/Hint : MP3
Duration : 1h 57mn
Bit rate mode : Constant
Bit rate : 192 Kbps
Channel(s) : 2 channels
Sampling rate : 48.0 KHz
Compression mode : Lossy
Stream size : 162 MiB (8%)
Alignment : Aligned on interleaves
Interleave, duration : 42 ms (1.00 video frame)
Interleave, preload duration : 504 ms
Writing library : LAME3.97
Encoding settings : -m j -V 4 -q 2 -lowpass 18.6 -b 192
Скриншоты:



Награды:

Премия канала «MTV», 1993 год
Победитель (2):
• Лучший экранный дуэт (Мэл Гибсон, Дэнни Гловер)
• Лучшая экшн-сцена
Номинации (3):
• Лучшая песня - «It's Probably Me»
• Лучший поцелуй (Мэл Гибсон, Рене Руссо)
• Самый желанный мужчина (Мэл Гибсон)

Знаете ли вы, что...

• Мёрто и Риггз проезжают кинотеатр, где идет фильм «Реклама на радио» (1992), режиссером которого был Ричард Доннер.
• Риггз (Мэл Гибсон) ест собачьи печенья, для того чтобы бросить курить. В «Безумном максе 2» (1981) персонаж Мэла питается собачьими консервами, для того чтобы выжить.
• Во время погони за инкассаторским автомобилем Делорес восклицает, что он – Воин дороги. Американское название «Безумного Макса 2» (1981), где главную роль сыграл Мэл Гибсон, - «Воин дороги».
• Досмотрите заключительные титры до конца, т.к. после них следует небольшая сцена.
• Лодка Мёрто называется «Код 7», что является условным кодом полиции Лос-Анджелеса для перерыва на обед.
• Это – единственный фильм в данном киносериале, где злодеи не угрожали семье Мёрто.
• Во время сцены, где Риггз и Лорна сравнивают шрамы, множество шрамов, полученных Риггзом, приходятся на события в «Смертельном оружии 2» (1989), в частности шрам от пулевого ранения в легкое и шрам от удара ножом в ногу.
• Когда в начале фильма здание взлетает на воздух, то рёв, который слышит зритель, также был использован в «Кинг Конге» (1976).
• Количество убитых: 17.
• Кэрри Фишер доводила сценарий до ума, но её имя не упоминается в титрах.
• Билл Фредерик, мэр Орландо, сыграл полицейского, который говорит «Браво!», обращаясь к Мёрто и Риггзу после взрыва здания.
• Джоэль Сильвер заплатил $165,000 за разрешение на снос здания.
• Из-за кассового успеха фильма студия «Warner Brothers» подарила Мэлу Гибсону, Дэнни Гловеру, Джо Пеши, Рене Руссо, Джоэлю Сильверу, Ричарду Доннеру и Джеффри Боуму по новому джипу «Range Rover».
• Режиссёрская версия фильма имеет хронометраж 121 минута.
• Здание, которое по ошибке взрывают Риггс и Мёрто, взрывается на самом деле. Это здание мэрии в Орландо, предназначавшееся под снос. Взрывотехники взорвали здание, съёмочная группа засняла процесс во всех подробностях с множества ракурсов. А Гибсон и Гловер безо всяких дублёров по настоящему убегали от настоящего взрыва. Позднее, участники всех четырёх фильмов назовут этот взрыв лучшим из всех, которые им пришлось снять.

Рецензия:

Рецензия с сайта КиНОПОиСК от MichaelFast :

Третья часть культового фильма «Смертельное оружие» безусловно является крепким боевиком, который никогда не наскучит и останется на долгие годы классикой экшн-фильма. Я очень полюбил фильмы Доннера, который мастерски делает из фильма любого жанра, если не шедевр, то фильм, который будут помнить и пересматривать много раз — а это, согласитесь, и есть любовь народа. Такие фильмы — редкость, тем более в наши дни, когда фильмоконвейер мейнстримов выпускает фильмы, где будет больше динамики, взрывов со спецэффектами, не сильно задумываясь о сюжете и целостности фильма. А «Смертельное оружие» то самое достояние, которое, к счастью, есть у всех зрителей. В фильме замечательные актеры. Полицейский дуэт из Мэла Гибсона и Дэнни Гловера — просто шик, один отчаянный и безумный, готовый порвать на части ненавистного преступника, другой — семейный человек, желающий спокойствия и как можно скорее уже уйти на пенсию, но его напарник все время ему мешает это сделать. В общем, это парочка точно заставит вас похохотать. Рэне Руссо — очень хорошо разбавляла этот дуэт, а Джо Пэши, только его появление не может не вызвать улыбки, эдакий сующий нос во все, что можно, гиперактивный еврей-барыга.

Естественно, фильм все-таки боевик. Может, он не настолько сконцентрирован именно на этот жанр, как предыдущие части, но своими экшн-сценами, динамикой и развивающемуся с бешеной скоростью сюжетом он легко нокаутирует большинство боевиков в этом компоненте. А фильму то не много не мало 19 лет, скоро он уже юбилей будет праздновать, а еще даст фору современным боевикам.

«Смертельное оружие» стало классикой боевика, я не ошибусь, если скажу, что все части стали примером для подражания, хотя лучше сделать уже вряд ли кто-то сможет. Картина Доннера стоит в одном ряду вместе с еще одним классическим боевиком «Крепкий орешек» и в их ценности и качестве не может быть сомнения. Этот фильм стоит смотреть и пересматривать.

10 из 10

Смертельное оружие 4 / Lethal Weapon 4 (1998) BDRip

Смертельное оружие 4 / Lethal Weapon 4 (1998) BDRip
Русское название: Смертельное оружие 4
Оригинальное название: Lethal Weapon 4
Год выпуска: 1998
Страна: США
Жанр: боевик, триллер, комедия, криминал
Кинокомпания: Donner/Shuler-Donner Productions, Silver Pictures, Warner Bros. Pictures Co.

Описание фильма: Главный герой Риггз ждет, как он надеется, сына от Лорны Коул, а Роджер - внука. Оба уже ощущают возраст, им дали звания капитанов, но сердца их все еще молоды и без приключений не могут. В этом 4-м по счету фильме их дорожки случайно пересеклись с китайскими мафиози, печатающими фальшивые деньги.
В фильме есть юмор, множество перестрелок, драк, погонь, головокружительных трюков. Взрываются бензовозы, машины, корабли садятся на мель, Джет Ли показывает свое мастерство в восточных единоборствах…

Режиссер: Ричард Доннер
Актеры: Мэл Гибсон, Дэнни Гловер, Джо Пеши, Рене Руссо, Крис Рок, Джет Ли, Стив Кэхэн, Ким Чан, Дарлен Лав, Трэйси Вульф, Эдди Ко, Джек Келер, Кэлвин Джанг, Дэймон Хайнс, Эбони Смит, Мэри Эллен Трейнор, Стивен Лам, Майкл Чоу, Тони Кийес, Ричард Риле, Фил Чонг, Роджер Йуан, Джефф Имада, Саймон Ри, Зу-Ву Киан, Дэнни Арройо, Рэймонд Ма, Дженни Лью Тадженд, Элизабет Санг, Джессика Янн, Дэнни Вайнандс, Пол Туэрпе, Джеймс Лью, Конан Ли, Джеймс Уинг Ву, Рэймонд Мой, Франсуа Чау, Стивен Лиска, Робин Линк, Роланд Кикинджер, Бенжамин Кинг, Джон Хармс, Эл Сапьенза, Даррен Пил, Джеймс Донован, Шоун Майклс, Пол Болен, Джинн Чинн, Рэй Чанг, Райан С. Бенсон…

Продолжительность: 02:07:23
Перевод: Дублированный
Субтитры: отсутствуют
Автор рипа: ural28



Дата мировой премьеры: 10 июля 1998
Дата выхода DVD релиза: 31 марта 2011, «ВС трейд»
Дата выхода Blu-Ray релиза: 16 ноября 2010, «Юниверсал Пикчерс Рус»

Видеокодек: DivX 5
Битрейт видео: ~2162 kbps
Размер кадра: 624x328
Качество видео: BDRip
Аудиокодек: MP3, 2ch
Битрейт аудио: ~192.00 kbps

MediaInfo:

General
Complete name : lEthAl.wEapOn.4.1998.BDRip.avi
Format : AVI
Format/Info : Audio Video Interleave
Format profile : OpenDML
File size : 2.10 GiB
Duration : 2h 7mn
Overall bit rate : 2 361 Kbps
Writing application : FairUse Wizard
Writing library : The best and REALLY easy backup tool

Video
ID : 0
Format : MPEG-4 Visual
Format settings, BVOP : 1
Format settings, QPel : No
Format settings, GMC : No warppoints
Format settings, Matrix : Default (MPEG)
Codec ID : DX50
Codec ID/Hint : DivX 5
Duration : 2h 7mn
Bit rate : 2 157 Kbps
Width : 624 pixels
Height : 328 pixels
Display aspect ratio : 1.902
Frame rate : 23.976 fps
Color space : YUV
Chroma subsampling : 4:2:0
Bit depth : 8 bits
Scan type : Progressive
Compression mode : Lossy
Bits/(Pixel*Frame) : 0.440
Stream size : 1.92 GiB (91%)
Writing library : DivX 1338m

Audio
ID : 1
Format : MPEG Audio
Format version : Version 1
Format profile : Layer 3
Mode : Joint stereo
Mode extension : MS Stereo
Codec ID : 55
Codec ID/Hint : MP3
Duration : 2h 7mn
Bit rate mode : Constant
Bit rate : 192 Kbps
Channel(s) : 2 channels
Sampling rate : 48.0 KHz
Compression mode : Lossy
Stream size : 175 MiB (8%)
Alignment : Aligned on interleaves
Interleave, duration : 42 ms (1.00 video frame)
Interleave, preload duration : 504 ms
Writing library : LAME3.97
Encoding settings : -m j -V 4 -q 2 -lowpass 18.6 -b 192

Открыть

Описание фильма:
Полная коллекция (квадрология) фильмов о жизни и работе двух полицейских.
Безжалостного полицейского Мартина Риггза из Лос-Анджелеса считают психически неуравновешенным. Этот “одинокий волк” постоянно подвергает себя смертельной опасности и всё ещё не избавился от потрясений, пережитых во Вьетнаме. А его напарник - спокойный, невозмутимый блюститель законности, добропорядочный семьянин, чернокожий Роджер Мёрто. Преодолевая первоначальную настороженность по отношению друг к другу, они постепенно находят общий язык и взаимопонимание…

Жанр: боевик, триллер, криминал, комедия
Режиссер: Ричард Доннер
Актеры: Мэл Гибсон, Дэнни Гловер, Джо Пеши...
Перевод: Дублированный
Субтитры: отсутствуют
Продолжительность: ~ 07:49:20
Скриншоты:



Награды:

Премия канала «MTV», 1999 год
Номинации (4):
• Лучшая комедийная роль (Крис Рок)
• Мужской прорыв года (Крис Рок)
• Лучшая экшн-сцена
• Лучший злодей (Джет Ли)

Золотая малина, 1999 год
Номинации (1):
• Худшая мужская роль второго плана (Джо Пеши)

Знаете ли вы, что...

• Роль Джета Ли сначала предлагали Джеки Чану, но тот отказался, так как не хотел играть отрицательного героя.
• В сцене, где Риггз и Мёрто поздравляют друг друга с повышением, они несколько раз пожимают друг другу руки и отдают честь. Точно такая же сцена присутствует в «Вечно молодом» (1992) между Мэлом Гибсоном и Джорджем Вендтом.
• Ким Чан сыграл персонажа по имени дядя Бенни. Точно так же звали его героя в «Коррупционере» (1999).
• Одни и те же актеры сыграли детей Мёрто во всех частях «Смертельного оружия».
• Во всех частях «Смертельного оружия» сыграли следующие актеры: Мэл Гибсон (Риггз); Дэнни Гловер (Мёрто); Дарлен Лав (жена Мёрто); Трэйси Вульф, Дэймон Хайнс и Эбони Смит исполнили роли детей Мёрто; Стив Кэхэн (капитан Мерфи); Мари Эллен Трэйнор (доктор Вудс).
• Пол Тюрп сыграл во всех частях «Смертельного оружия», но он всегда появлялся в разных ролях. Он сыграл наемника в первой части, убийцу во второй, помощника № 3 в третьей, и пилота вертолета в четвертом фильме.
• Автомобильная погоня на шоссе и драка между Риггзом и китайцем снимались на шоссе 215 в Лас Вегасе.
• Съёмки фильма начались в январе, за семь месяцев до премьеры. Монтаж фильма занял около трех недель.
• Трейлер Риггза находится в том же самом месте, что и трейлер Джима Рокфорда в «The Rockford Files» (1974).
• Когда начались съёмки, сценарий фильма еще не был дописан.
• Фраза Роджера Мёрто (Дэнни Гловер) «Я слишком стар для этого дерьма!» произносится в каждой части «Смертельного оружия». Только в данном фильме её произносит Риггз в немного измененном варианте: «Мы не слишком стары для этого дерьма!».
• В телевизионных роликах, рекламирующих фильм, Крис Рок носил полицейскую форму и пародировал Риггза. В фильме мы ни разу не увидели его в полицейской форме. Однако на финальных титрах на одной из фотографий можно увидеть Криса, одетого в полицейскую форму.
• Количество убитых: 30.

Рецензия:

Рецензия с сайта КиНОПОиСК от Боб :

Отличное продолжение знаменитой франшизы, ставшей чуть ли не лучшими появлениями на экране Мела Гибсона и Дэнни Гловера. На самом деле такое бывает крайне редко — снять четвертый фильм на уровне оригинала, как правило, качество серий уменьшается параллельно увеличению их порядкового номера, но только не у Ричарда Доннера!

Этот великолепный режиссер настолько хорошо чувствует зрителя, настолько точно знает, что и в какой момент ему подать, так владеет материалом, что даже самый стандартный сценарий, опробованный в миллионе боевиков, превращается в его руках в шикарное кино. «Смертельное оружие» может с гордостью носить имя оригинала, потому как мало в чем ему проигрывает.

Доннер не подвел. 4-я часть — это море экшена, прекрасные актерские работы и обязательные атрибуты жанра — погони, драки, перестрелки, очень много юмора, оличных диалогов и вполне неплохие спецэффекты. То есть то, что доктор прописал от скуки и безделья. Очень увлекательно, очень качественно. Еще бы — вбухать в фильм 140 миллионов зеленых могут только голливудские продюсеры. Впрочем, результат оправдал все ожидания.

Изрядно постаревшие, но не растерявшие своего обаяния Мел Гибсон и Дэнни Гловер, продалжают мочить своих врагов, прикалываясь и хохмя. Роли, сыгранные ошеломляюще талантливо и ярко — позже благодаря этой парочке появились и более привлекательные и оригинальные дуэты, вроде Джеки Чан-Крис Такер в «Часах пик», и довольно посредственные и полностью подражательные, как в «Плохих парнях».

О чем это говорит? Только о том, что герои действтильно любимы народом и всегда будут иметь своего зрителя. Их бесконечные словесные перепалки и подколки здорово украшают фильм, привнося в и без того увлекательное и динамичное зрелище легкость и игривость, несерьезность, без которой американские боевики, как правило, превращаются в тупое ван-даммовское мочилово. Я рад, что Доннеру даже в 4-й части удалось этого избежать.

Забавно смотрелись на втором плане Крис Рок и особенно Джо Пеши, который сыграл как всегда довольно противного, но, тем не менее, милого героя. Конечно, в фильме для новизны сюжета пригласили много китайцев, правда, большинство из них просто «пушечное мясо» — скорее для экзотики.

А главным злодеем стал Джет Ли, что меня, если честно, немного покоробило. Даже не то, что Ли сделали марионеткой в руках американских продюсеров и сделали злодеем, сколько то, что ему не дали нормально развернуться ни в демонстрации боевых искусств, ни в реальных его возможностях. Ведь после Джеки Чана это лучший кинобоец современности, а он был вынужден проиграть этому бегемоту Гибсону.

И, хотя исход их финальной схватки был ясен с самого начала, тем не менее, обида остается. В реале Гибсон и 3-х секунд против Ли не продержался — со стороны их бой смотрелся как потасовка пингвина с гепардом. Хотя, Джета, по крайней мере, стали больше узнавать в Америке — и то плюс. Высот Джеки Чана ему, конечно, никогда не достичь, но атмосферу фабричной стандартности он здорово разбавляет.

А вообще фильм классный. Под него приятно расслабиться — получить огромную порцию веселья и увлекательного приключения. Все-таки «Смертельное оружие» продолжает жить. Уже ходят слухи о 5-й части. Что ж, я не против, лишь бы актеры и режиссер оставались те же, они не подведут!

10 из 10, как и всем частям.


Смертельное оружие (1987, 1989, 1992, 1998) на трекере NNM- Club:


Смертельное оружие. Квадрология / Lethal Weapon. Quadrology (1987, 1989, 1992, 1998) [1080p] Blu-ray
Смертельное оружие. Квадрология / Lethal Weapon. Quadrology (1987, 1989, 1992, 1998) [1080p] BDRip
Смертельное оружие (Режиссерские версии) / Lethal Weapon (Director' Cut) (Антология, 4xDVD9) (1987-1998)
Смертельное оружие 4 / Lethal Weapon 4 (1998) [1080p] BDRemux
Смертельное оружие 2 / Lethal Weapon 2 (1989) [1080p] BDRemux
Смертельное оружие 3 / Lethal Weapon 3 (1992) [1080p] BDRemux
Смертельное оружие / Lethal Weapon (1987) [1080p] BDRemux
Смертельное Оружие: Тетралогия / Lethal Weapon: Tetralogy (1987, 1989, 1992, 1998) 4*DVD-5
Смертельное оружие. Квадрология / Lethal Weapon. Quadrology (1987, 1989, 1992, 1998) [H.264] BDRip
Смертельное оружие (Режиссерские версии) / Lethal Weapon (Director' Cut) (1987-1998) DVDRip [квадрология]
Смертельное оружие 1,2,3,4 / Lethal weapon 1,2,3,4 (1987-1998) DVDRip
Смертельное оружие 2 / Lethal Weapon 2 (1989) [720p] BDRip
Смертельное Оружие / Lethal Weapon (1987) [720p] BDRip
Смертельное оружие - 4 / Lethal Weapon 4 (1998) BDRip
Смертельное оружие / Lethal Weapon (1987) [H.264/720р-LQ] BDRip
Смертельное оружие 4 / Lethal Weapon 4 (1998) BDRip
Смертельное оружие 2/Lethal Weapon 2 (1989) DVDRip
Смертельное оружие 4/Lethal Weapon 4 (1998) DVDRip
Смертельное оружие/Lethal Weapon (1987) DVDRip
Смертельное оружие 3/Lethal Weapon 3 (1992) DVDRip


Время раздачи: 24/7 - до первых 10 скачавших гарантировано, а затем - сколько получится…

Смотреть Online

Детали торрента:
Название:Смертельное оружие. Квадрология / Lethal Weapon. Quadrology (1987, 1989, 1992, 1998) BDRip
Дата добавления:15 Май 2012 09:49:23
Размер:8,17 GB
Раздают:5
Качают:0
Форум:Зарубежные Фильмы (HD*Rip/LQ, DVDRip, SATRip, VHSRip)

All rights reserved © 2015-2019