TORRENTS45.XYZ

Скачать Animal Planet: Ночь. (Под покровом ночи). Рыжие волки / Night. Red Wolves (2011) HDTVRip


Animal Planet: Ночь. (Под покровом ночи). Рыжие волки / Night. Red Wolves (2011) HDTVRip
Релиз группа: RG torrents45.xyzcTV
Автор Rip'а: skorpionN

Русское название: Animal Planet: Ночь. (Под покровом ночи). Рыжие волки
Оригинальное название: Night. Red Wolves
Режиссер / Телекомпания: Philippe Denham
Год выпуска: 2011
Жанр: Документальный

Описание:
Что скрывает ночь? Хотите побывать в ночных джунглях, полных таинственных и пугающих шорохов? Рискнете отправиться в путешествие по пустыне после захода солнца, когда ядовитые змеи выползают из своих дневных укрытий? Отважитесь ли на прогулку по саванне при свете луны – под рычание львов и вой гиен? Программа приоткрывает сумеречные тайны животного мира, интригующие, а порой и пугающие. Проводником в этом захватывающем ночном приключении станет ведущий Брендон Макмиллан – дрессировщик эксперт по поведению животных, который прекрасно знает повадки хищников и умеет находить общий язык даже с самыми опасными созданиями. В каждом выпуске программы – свои главные герои. Сначала зрители вместе с Брендоном следят за ночной жизнью больших кошек – пантер, которых не так-то легко заметить ночью. Оставаясь незамеченным, он наблюдает за их охотничьими приемами, восхищаясь удивительной грацией. Затем ведущий отправляется на поиски рыжего волка – редчайшего животного, которого еще совсем недавно считали исчезнувшим с лица земли. Он спускается в пещеры, где полным-полно летучих мышей, сплавляется по Амазонке, рассказывая о ночных обитателях самых диких мест планеты, и слушает ночной вой койотов в американских прериях. Съемки этой программы стали возможными благодаря уникальной технике, которая позволила увидеть то, что скрывает ночь. Приборы ночного видения, датчики температуры, параболические микрофоны, инфракрасные маяки – с помощью всей этой аппаратуры авторам фильма удалось создать потрясающее зрелище, а фантастический мир ночной природы предстал перед нами как на ладони.
Рыжие волки / Red Wolves
Загадочные рыжие волки встречаются лишь в отдаленных прибрежных районах Сев. Каролины, куда Брэндон отправляется в сопровождении биолога Майкла Морза. Там он учится выть по-волчьи.

Продолжительность: 00:22:02

Перевод: Одноголосый закадровый, профессиональный

Видеокодек: Xvid
Битрейт видео: ~Xvid 25.00fps 1800 Kbps
Размер кадра: 720x400
Качество видео: HDTVRip
Аудиокодек: AC3
Битрейт аудио: Dolby AC3 48000Hz 6ch 448kbps

MediaInfo:

Формат : AVI
Формат/Информация : Audio Video Interleave
Размер файла : 316 Мбайт
Продолжительность : 22 м.
Общий поток : 2002 Кбит/сек
Программа кодирования : VirtualDubMod 1.5.10.3 | www.virtualdub-fr.org || (build 2550/release)
Библиотека кодирования : VirtualDubMod build 2550/release

Видео
Идентификатор : 0
Формат : MPEG-4 Visual
Профиль формата : Advanced Simple@L5
Параметр BVOP формата : 2
Параметр QPel формата : Нет
Параметр GMC формата : Без точки перехода
Параметр матрицы формата : Default (H.263)
Идентификатор кодека : XVID
Идентификатор кодека/Подсказка : XviD
Продолжительность : 22 м.
Битрейт : 1800 Кбит/сек
Ширина : 720 пикселей
Высота : 400 пикселей
Соотношение сторон : 16:9
Частота кадров : 25,000 кадров/сек
Цветовое пространство : YUV
Субдискретизация насыщенности : 4:2:0
Битовая глубина : 8 бит
Тип развёртки : Прогрессивная
Метод сжатия : С потерями
Бит/(Пиксели*Кадры) : 0.250
Размер потока : 284 Мбайт (90%)
Библиотека кодирования : XviD 1.2.1 (UTC 2008-12-04)

Аудио
Идентификатор : 1
Формат : AC-3
Формат/Информация : Audio Coding 3
Расширение режима : CM (complete main)
Идентификатор кодека : 2000
Продолжительность : 22 м.
Вид битрейта : Постоянный
Битрейт : 192 Кбит/сек
Каналы : 6 каналов
Расположение каналов : Front: L C R, Side: L R, LFE
Частота : 48,0 КГц
Битовая глубина : 16 бит
Метод сжатия : С потерями
Размер потока : 30,3 Мбайт (10%)
Выравнивание : Разделение по промежуткам
Продолжительность промежутка : 40 мс. (1,00 видеокадр)
Время предзагрузки промежутка : 500 мс.
Кайман Буйвол Летучие мыши Жираф Койот Слоны Кальмары Акулы Львы Леопарды
Крокодилы и аллигаторы Миграция Гиппопотам Гиена Фер-де-ланс (Ямкоголовая гадюка) Рыжие волки

Скриншоты:


Смотреть Online

Детали торрента:
Название:Animal Planet: Ночь. (Под покровом ночи). Рыжие волки / Night. Red Wolves (2011) HDTVRip
Дата добавления:11 Апр 2012 16:04:01
Размер:316 MB
Раздают:1
Качают:0
Форум:Animal Planet

All rights reserved © 2015-2019