TORRENTS45.XYZ

Скачать Спасти рядового Райана / Saving Private Ryan (1998) [H.264/720р-LQ] BDRip


Спасти рядового Райана / Saving Private Ryan (1998) [H.264/720р-LQ] BDRip
Русское название: Спасти рядового Райана
Оригинальное название: Saving Private Ryan
Год выпуска: 1998
Выпущено: США
Жанр: Боевик, Драма, Военный

Описание фильма:
Капитан Джон Миллер получает тяжелое задание. Вместе с отрядом из восьми человек Миллер должен отправиться в тыл врага на поиски рядового Джеймса Райана, три родных брата которого почти одновременно погибли на полях сражений.Командование приняло решение демобилизовать Райана и отправить его на родину к безутешной матери. Но для того, чтобы найти и спасти солдата, крошечному отряду придется пройти через все круги ада…

Режиссер: Стивен Спилберг
Актеры: Том Хэнкс, Том Сайзмор, Эдвард Бернс, Барри Пеппер, Адам Голдберг, Вин Дизель, Джованни Рибизи, Джереми Дэвис, Мэтт Деймон, Тед Дэнсон, Пол Джиаматти, Дэннис Фарина

Продолжительность: 02:48:11
Перевод: Профессиональный (полное дублирование)
Релиз группа:



Дата мировой премьеры: 24 июля 1998
Дата российской премьеры: 9 октября 1998
Дата выхода DVD релиза: 5 апреля 2011, «Юниверсал Пикчерс Рус»

Видеокодек: MPEG-4 AVC/H.264
Битрейт видео: ~1857 Кбит/сек
Размер кадра: 1280x692
Качество видео: BDRip
Аудиокодек: AC3 5.1
Битрейт аудио: 448 Кбит/сек

Награды и номинации

MediaInfo:

Общее
Уникальный идентификатор : 221361131095613000533211259797958202908 (0xA6889A641BFC3953AB22AC1B9CD2961C)
Полное имя : D:\МОИ ЗАКАЧКИ\Фильмы\Спасти рядового Райана (1998) x.264.BDRip 720p.mkv
Формат : Matroska
Версия формата : Version 2
Размер файла : 2,70 Гбайт
Продолжительность : 2 ч. 48 м.
Режим общего битрейта : Переменный
Общий поток : 2290 Кбит/сек
Название фильма : Rip by Romeo
Дата кодирования : UTC 2010-12-10 15:33:57
Программа кодирования : mkvmerge v3.0.0 ('Hang up your Hang-Ups') built on Dec 12 2009 15:20:35
Библиотека кодирования : libebml v0.7.9 + libmatroska v0.8.1

Видео
Идентификатор : 1
Формат : AVC
Формат/Информация : Advanced Video Codec
Профиль формата : High@L4.1
Параметр CABAC формата : Да
Параметр ReFrames формата : 3 кадра
Идентификатор кодека : V_MPEG4/ISO/AVC
Продолжительность : 2 ч. 48 м.
Вид битрейта : Переменный
Битрейт : 1857 Кбит/сек
Максимальный битрейт : 17,5 Мбит/сек
Ширина : 1280 пикселей
Высота : 692 пикселя
Соотношение сторон : 1,850
Частота кадров : 23,976 кадра/сек
Цветовое пространство : YUV
Субдискретизация насыщенности : 4:2:0
Битовая глубина : 8 бит
Тип развёртки : Прогрессивная
Бит/(Пиксели*Кадры) : 0.087
Размер потока : 2,12 Гбайт (78%)
Заголовок : Спасти рядового Райана
Библиотека кодирования : x264 core 108 r1788 c764e29
Настройки программы : cabac=1 / ref=1 / deblock=1:0:0 / analyse=0x3:0x3 / me=dia / subme=1 / psy=1 / psy_rd=0.00:0.00 / mixed_ref=0 / me_range=16 / chroma_me=1 / trellis=0 / 8x8dct=1 / cqm=0 / deadzone=21,11 / fast_pskip=1 / chroma_qp_offset=0 / threads=6 / sliced_threads=0 / slices=4 / nr=0 / decimate=1 / interlaced=0 / constrained_intra=0 / bframes=3 / b_pyramid=1 / b_adapt=1 / b_bias=0 / direct=1 / weightb=1 / open_gop=0 / weightp=0 / keyint=24 / keyint_min=1 / scenecut=40 / intra_refresh=0 / rc_lookahead=0 / rc=abr / mbtree=0 / bitrate=1857 / ratetol=1.0 / qcomp=0.60 / qpmin=0 / qpmax=51 / qpstep=4 / vbv_maxrate=17500 / vbv_bufsize=14500 / ip_ratio=1.10 / pb_ratio=1.10 / aq=1:1.00 / nal_hrd=vbr
Язык : English
Default : Да
Forced : Нет

Аудио
Идентификатор : 2
Формат : AC-3
Формат/Информация : Audio Coding 3
Расширение режима : CM (complete main)
Идентификатор кодека : A_AC3
Продолжительность : 2 ч. 48 м.
Вид битрейта : Постоянный
Битрейт : 448 Кбит/сек
Каналы : 6 каналов
Расположение каналов : Front: L C R, Side: L R, LFE
Частота : 48,0 КГц
Битовая глубина : 16 бит
Метод сжатия : С потерями
Размер потока : 541 Мбайт (20%)
Заголовок : Профессиональный (полное дублирование)
Язык : Russian
Default : Да
Forced : Нет

Знаете ли вы, что...

  • Для съемок сцен, в которых солдатам отрывает руки и ноги, были приглашены настоящие инвалиды.

  • В картине замечено два немецких танка «Тигр». В действительности же, это легендарные отечественные машины «Т-34», «загримированные» под «Тигров».

  • В силу обстоятельств основная часть съемок картины была перенесена с территории Великобритании на ирландские земли. Британское Министерство обороны отказалось оказать съемочной группе необходимую помощь, предоставив в качестве статистов своих бойцов. Тогда-то на выручку Спилбергу и пришли ирландские солдаты (около 250 человек).

  • Режиссер Стивен Спилберг начал задумываться о приглашении в проект Мэтта Дэймона после просмотра картины «Мужество в бою», но долгое время считал актера слишком худосочным. С легкой подачи Робина Уильямса Спилберг познакомился с Дэймоном на съемочной площадке «Умницы Уилла Хантинга» и изменил свое мнение.
    Роль Капарзо была написана специально для Вина Дизеля после того, как Спилберг ознакомился с предыдущими работами актера.

  • Все ведущие актеры в принудительном порядке проходили армейские тренировки в течение нескольких дней; исключение было сделано лишь для Мэтта Дэймона, которому, несмотря на присутствующую в названии фамилию его героя, все-таки отводилась второстепенная роль.

  • В оригинальной версии сценария речь персонажа Тома Хэнкса, обращенная к остальным участникам боевого подразделения, была намного длиннее (в ней герой рассказывает о том, что он готов сделать, чтобы вернуться обратно домой). Воспротивился сам Хэнкс, посетовав на то, что его персонажу не стоит так разглагольствовать. Спилберг согласился, и монолог был серьезно купирован.

  • Несмотря на то, что Стивен Спилберг намеренно снизил цветность пленки примерно на 60 %, уповая на то, что действие картины происходит во времена, когда цветного телевидения еще не существовало, две ведущие кабельные компании Америки (DirecTV и Dish) при показе картины на своих каналах вернули настоящие цвета обратно. После первых двух дней показа на Центры поддержки данных каналов обрушился шквал звонков недовольных граждан, посетовавших на отсутствие цветовой гаммы в передаваемой картинке.

  • Картина основана на реальных событиях, произошедших с братьями Ниландами во время Второй мировой войны.

  • Многие ветераны войны выразили благодарность Стивену Спилбергу, снявшему, по их мнению, достоверное кино. Именно они посоветовали Стивену показать в кадре многочисленные натуралистичные моменты тем самым, приблизившись к реальным событиям.

  • В Сингапуре данная картина получила невиданный доселе рейтинг NC-16 (от 16 лет). С одной стороны, картина была весьма жестокой, что исключало получение рейтинга PG, с другой - в картине не было и мысли о сексуальной тематике, в связи с чем, рейтинг R также не мог быть получен. Тогда-то и был найден компромиссный вариант рейтинга.

  • В фильме показано ровно 206 трупов.

  • Для съемок первой сцены картины амуниция актеров была изготовлена из древесины, т.к. таскать металл на себе в течение нескончаемого количества дублей было слишком тяжело.

  • На роль рядового Райана приглашался Эдвард Нортон.

  • Последняя картина, монтаж которой производился «по старинке», без применения цифровых технологий, ставшая победителем церемонии Оскар в номинации «Лучший монтаж».

  • Фильм был не пропущен к прокату цензорами Индии за слишком большое количество сцен насилия. В связи с этим к Спилбергу были предъявлены требования вырезать из индийской версии картины самые жестокие моменты. Однако Стивен, к удивлению индийских прокатчиков, отказался и предложил Индии вообще отказаться от релиза. Понимая всю серьезность ситуации, премьер-министр Индии решил посмотреть картину сам и, оставшись потрясенным увиденным, принял решение выпустить на экраны страны оригинальную версию без купюр.

  • В одном из эпизодов Апхэму (Джереми Дэвис) делают замечание насчет того, что он отдал честь своему командиру (Том Хэнкс) и тем самым указал на него снайперам. В «Форресте Гампе» (1994) в аналогичной ситуации был наказан герой Тома Хэнкса.

  • До Тома Хэнкса на гравную роль претендовали Харрисон Форд и Мел Гибсон.
Скриншоты:



Смотреть Online

http://moonwalk.cc/video/c709a8f2b442110b28a3ebdbe44e5150/iframe
Детали торрента:
Название:Спасти рядового Райана / Saving Private Ryan (1998) [H.264/720р-LQ] BDRip
Дата добавления:25 Мар 2012 10:04:06
Размер:2,7 GB
Раздают:2
Качают:0
Форум:Зарубежные Фильмы (HD*Rip/LQ, DVDRip, SATRip, VHSRip)

All rights reserved © 2015-2018