TORRENTS45.XYZ

Скачать History Channel: Индокитай. Народная война в цвете (серии 1-2 из 2) / Indochine: A People's War in Colour (2009) SATRip


History Channel: Индокитай. Народная война в цвете / Indochine: A People's War in Colour (2009) SATRip
Русское название: Индокитай. Народная война в цвете
Оригинальное название: Indochine: A People's War in Colour
Режиссер / Телекомпания: Стюарт Биннс / Big Ape Media
Год выпуска: 2009
Жанр: Документальный

Описание:
Восточная колония Франции - Индокитай, состояла из Камбоджи и Лаоса на западе, и из территорий Танкина,
Аннама и Кохинхины, и древнего королевства Вьетнам на востоке. Местные народы, всегда стремившиеся к независимости,
веками противостоявшие вторжениям со стороны Древнего Китая, более 50 лет жили под властью Франции.
И вот эти люди создают мощное движение за независимость. Последуют почти 40 лет отчаянной борьбы и ужасных страданий.
Документальный фильм, насыщенный хроникой и свидетельствами очевидцев, рассказывает об этой борьбе.
О страданиях и мужестве народа Индокитая, за тридцать лет пережившего три войны. Передача,
охватывающая эпохи французской колонизации и войны с Японией, рассказывает о свержении французского господства,
последовавшей за этим гражданской войне и новом иностранном вмешательстве.
В передаче использована недавно обнаруженная цветная кинохроника вьетнамской войны.

Доп. информация:
В фильме присутствуют образы, могущие оскорбить зрителей (кадры жестокости) и ненормативная лексика.

Перевод: Дублированный
Продолжительность: 2 x ~ 00:52:30
Качество видео: SATRip

Видеокодек: Xvid
Битрейт видео: ~1355 Кбит/сек - 1 серия, ~1405 Кбит/сек - 2 серия
Размер кадра: 704 x 400
Аудиокодек: MP3
Битрейт аудио: 128 Кбит/сек

1 серия. Колониальные войны / Colonial Wars

В 1937 году Индокитай был колонией Франции .Появление таких лидеров освободительного движения
как Хо Ши Мин и Во Нгуен Зиап изменило картину распределения политических сил в регионе.
Во время Второй мировой войны США поддерживали Хо Ши Мина в борьбе с японскими захватчиками,
однако, вскоре после подписания мирного соглашения бывшие союзники позволили Франции вновь захватить
контроль над территорией. Только в 1954 года победа народной армии положила конец господству Франции в Индокитае.
Вслед за этим, на Женевской конференции была провозглашена независимость Лаоса и Камбоджи,
а Вьетнам был разделен по 17-ой параллели на две части: коммунистическую северную во главе с Хо Ши Минном и южную,
поддерживаемую правительством США.

2 серия. И пришли американцы / Then The Americans Came

Трагические события в Юго-Восточной Азии, получившие название Вьетнамской войны разворачивались стремительно.
В конце 1950- х американский военный контингент состоял всего из нескольких высокопоставленных военных,
а к концу 1960-х годов численность армии США, размещенной здесь, достигла полмиллиона человек,
не считая союзной армии южного Вьетнама. Борьба против Вьетконга, партизанской армии Севера, привела к тому,
что к 1968 году север Вьетнама был опустошен в результате массированных бомбардировок,
в то время как Южный Вьетнам был охвачен кровопролитной гражданской войной.
В 1973 году все американские военные покинули Вьетнам. Вскоре южновьетнамская армия,
еще некоторое время продолжавшая бороться против Севера, сложила оружие.

MediaInfo

1 серия

Общее
Полное имя : C:\Users\Eugen\Desktop\РАЗДАЧА\Indokitaj.Narodnaja.vojna.v.cvete.(1-2.ser.iz.2)\Indokitaj.Narodnaja.vojna.v.cvete.(1.ser.iz.2).Kolonialnye.vojny.2009.avi
Формат : AVI
Формат/Информация : Audio Video Interleave
Размер файла : 560 Мбайт
Продолжительность : 52 м.
Общий поток : 1493 Кбит/сек
Программа кодирования : VirtualDubMod 1.5.10.2 (build 2540/release)
Библиотека кодирования : VirtualDubMod build 2540/release

Видео
Идентификатор : 0
Формат : MPEG-4 Visual
Профиль формата : Advanced Simple@L5
Параметр BVOP формата : 1
Параметр QPel формата : Нет
Параметр GMC формата : Без точки перехода
Параметр матрицы формата : Default (MPEG)
Идентификатор кодека : XVID
Идентификатор кодека/Подсказка : XviD
Продолжительность : 52 м.
Битрейт : 1355 Кбит/сек
Ширина : 704 пикселя
Высота : 400 пикселей
Соотношение сторон : 16:9
Частота кадров : 25,000 кадров/сек
Цветовое пространство : YUV
Субдискретизация насыщенности : 4:2:0
Битовая глубина : 8 бит
Тип развёртки : Прогрессивная
Метод сжатия : С потерями
Бит/(Пиксели*Кадры) : 0.193
Размер потока : 509 Мбайт (91%)
Библиотека кодирования : XviD 1.2.1 (UTC 2008-12-04)

Аудио
Идентификатор : 1
Формат : MPEG Audio
Версия формата : Version 1
Профиль формата : Layer 3
Идентификатор кодека : 55
Идентификатор кодека/Подсказка : MP3
Продолжительность : 52 м.
Вид битрейта : Постоянный
Битрейт : 128 Кбит/сек
Каналы : 2 канала
Частота : 48,0 КГц
Метод сжатия : С потерями
Размер потока : 48,1 Мбайт (9%)
Выравнивание : Соединение по промежуткам
Продолжительность промежутка : 40 мс. (1,00 видеокадр)
Время предзагрузки промежутка : 504 мс.
Библиотека кодирования : LAME3.98r
Настройки программы : -m s -V 4 -q 2 -lowpass 17 -b 128

2 серия

Общее
Полное имя : C:\Users\Eugen\Desktop\РАЗДАЧА\Indokitaj.Narodnaja.vojna.v.cvete.(1-2.ser.iz.2)\Indokitaj.Narodnaja.vojna.v.cvete.(2.ser.iz.2).I.prishli.amerikancy.2009.avi
Формат : AVI
Формат/Информация : Audio Video Interleave
Размер файла : 580 Мбайт
Продолжительность : 52 м.
Общий поток : 1543 Кбит/сек
Библиотека кодирования : VirtualDub build 32507/release

Видео
Идентификатор : 0
Формат : MPEG-4 Visual
Профиль формата : Advanced Simple@L5
Параметр BVOP формата : 2
Параметр QPel формата : Нет
Параметр GMC формата : Без точки перехода
Параметр матрицы формата : Default (H.263)
Режим смешивания : Сжатый битовый поток
Идентификатор кодека : XVID
Идентификатор кодека/Подсказка : XviD
Продолжительность : 52 м.
Битрейт : 1405 Кбит/сек
Ширина : 704 пикселя
Высота : 400 пикселей
Соотношение сторон : 16:9
Частота кадров : 25,000 кадров/сек
Цветовое пространство : YUV
Субдискретизация насыщенности : 4:2:0
Битовая глубина : 8 бит
Тип развёртки : Прогрессивная
Метод сжатия : С потерями
Бит/(Пиксели*Кадры) : 0.200
Размер потока : 529 Мбайт (91%)
Библиотека кодирования : XviD 1.2.1 (UTC 2008-12-04)

Аудио
Идентификатор : 1
Формат : MPEG Audio
Версия формата : Version 1
Профиль формата : Layer 3
Режим : Joint stereo
Расширение режима : MS Stereo
Идентификатор кодека : 55
Идентификатор кодека/Подсказка : MP3
Продолжительность : 52 м.
Вид битрейта : Постоянный
Битрейт : 128 Кбит/сек
Каналы : 2 канала
Частота : 48,0 КГц
Метод сжатия : С потерями
Размер потока : 48,1 Мбайт (8%)
Выравнивание : Разделение по промежуткам
Продолжительность промежутка : 40 мс. (1,00 видеокадр)
Время предзагрузки промежутка : 500 мс.
Скриншоты:
1 серия

2 серия


Детали торрента:
Название:History Channel: Индокитай. Народная война в цвете (серии 1-2 из 2) / Indochine: A People's War in Colour (2009) SATRip
Дата добавления:14 Мар 2012 11:31:51
Размер:1,11 GB
Раздают:
Качают:0
Форум:History Channel

All rights reserved © 2015-2018