TORRENTS45.XYZ

Скачать Никита Глухов | Учимся играть Пикник "Настоящие дни"(проект "Я Гитарист") [2011] CamRip


Никита Глухов | Учимся играть Пикник "Настоящие дни"(проект "Я Гитарист") [2011] CamRip
Название: Учимся играть Пикник "Настоящие дни"(проект "Я Гитарист")
Год выпуска: 2011
Автор (режиссер): Никита Глухов
Жанр: Обучающий видеокурс

Описание:
В этом выпуске проекта "Я Гитарист" Никита Глухов научит играть вас композицию Настоящие дни в исполнении группы Пикник.
Успехов Вам!

Качество видео: CamRip
Продолжительность: 4 м. 40 с.

Видеокодек: MP4
Битрейт видео: ~1754 Кбит/сек
Размер кадра: 1280 х 720
Аудиокодек: AAC
Битрейт аудио: 152 Кбит/сек

MediaInfo

Общее
Полное имя : D:\загрузки\Проект Я Гитарист Видеоуроки\Пикник Настоящие дни Видеоурок.mp4
Формат : MPEG-4
Профиль формата : Base Media / Version 2
Идентификатор кодека : mp42
Размер файла : 64,0 Мбайт
Продолжительность : 4 м. 40 с.
Режим общего битрейта : Переменный
Общий поток : 1911 Кбит/сек
Дата кодирования : UTC 2011-08-26 04:42:56
Дата пометки : UTC 2011-08-26 04:42:56
gsst : 0
gstd : 280920
gssd : B4A7DDAC8HH1331564885789155
gshh : o-o.preferred.fra07t11.v8.cache7.c.youtube.com

Видео
Идентификатор : 1
Формат : AVC
Формат/Информация : Advanced Video Codec
Профиль формата : High@L3.1
Параметр CABAC формата : Да
Параметр ReFrames формата : 1 кадр
Идентификатор кодека : avc1
Идентификатор кодека/Информация : Advanced Video Coding
Продолжительность : 4 м. 40 с.
Битрейт : 1754 Кбит/сек
Максимальный битрейт : 3779 Кбит/сек
Ширина : 1280 пикселей
Высота : 720 пикселей
Соотношение сторон : 16:9
Режим частоты кадров : Постоянный
Частота кадров : 25,000 кадров/сек
Цветовое пространство : YUV
Субдискретизация насыщенности : 4:2:0
Битовая глубина : 8 бит
Тип развёртки : Прогрессивная
Бит/(Пиксели*Кадры) : 0.076
Размер потока : 58,7 Мбайт (92%)
Дата пометки : UTC 2011-08-26 04:42:57

Аудио
Идентификатор : 2
Формат : AAC
Формат/Информация : Advanced Audio Codec
Профиль формата : LC
Идентификатор кодека : 40
Продолжительность : 4 м. 40 с.
Вид битрейта : Переменный
Битрейт : 152 Кбит/сек
Максимальный битрейт : 194 Кбит/сек
Каналы : 2 канала
Расположение каналов : Front: L R
Частота : 44,1 КГц
Метод сжатия : С потерями
Размер потока : 5,09 Мбайт (8%)
Заголовок : IsoMedia File Produced by Google, 5-11-2011
Дата кодирования : UTC 2011-08-26 04:42:56
Дата пометки : UTC 2011-08-26 04:42:57
Скриншоты:


Детали торрента:
Название:Никита Глухов | Учимся играть Пикник "Настоящие дни"(проект "Я Гитарист") [2011] CamRip
Дата добавления:12 Мар 2012 23:28:46
Размер:64 MB
Раздают:
Качают:0
Форум:Музыка

All rights reserved © 2015-2018