TORRENTS45.XYZ

Скачать Montgomery Gentry - Rebels On The Run (2011) [FLAC|Lossless]<Country-Rock, Neo-Traditionalist Country>


Montgomery Gentry - Rebels On The Run (2011)

Год: 2011 | Жанр: Country-Rock, Neo-Traditionalist Country | Лэйбл: Average Joes Entertainment Group [00233] | Формат: CD, Album
Аудио Кодек: FLAC | Аудио Битрейт: Lossless | Тип Рипа: Tracks+.cue | Наличие Обложки: Да
Продолжительность: 00:36:21
Трек лист:
01. Damn Right I Am :: 03:29
02. Ain't No Law Against That :: 03:08
03. Damn Baby :: 02:49
04. Empty :: 03:25
05. Where I Come From :: 03:21
06. I Like Those People :: 03:40
07. Rebels On The Run :: 04:06
08. Simple Things :: 02:56
09. Missing You :: 03:22
10. So CAlled Life :: 02:56
11. Work Hard, Play Harder :: 03:09

Отчёт ЕАС:

Код:

Exact Audio Copy V1.0 beta 3 from 29. August 2011

EAC extraction logfile from 18. December 2011, 15:19

Montgomery Gentry / Rebels On The Run

Used drive  : HL-DT-STDVDRAM GSA-H62L   Adapter: 3  ID: 1

Read mode               : Secure
Utilize accurate stream : Yes
Defeat audio cache      : Yes
Make use of C2 pointers : No

Read offset correction                      : 667
Overread into Lead-In and Lead-Out          : No
Fill up missing offset samples with silence : Yes
Delete leading and trailing silent blocks   : No
Null samples used in CRC calculations       : Yes
Used interface                              : Native Win32 interface for Win NT & 2000
Gap handling                                : Appended to previous track

Used output format              : User Defined Encoder
Selected bitrate                : 1024 kBit/s
Quality                         : High
Add ID3 tag                     : No
Command line compressor         : C:\Program Files (x86)\FLAC\flac.exe
Additional command line options : -8 -V -T "ARTIST=%artist%" -T "TITLE=%title%" -T "ALBUM=%albumtitle%" -T "DATE=%year%" -T "TRACKNUMBER=%tracknr%" -T "GENRE=%genre%" -T "PERFORMER=%albuminterpret%" -T "COMPOSER=%composer%" %haslyrics%--tag-from-file=LYRICS="%lyricsfile%"%haslyrics% -T "ALBUMARTIST=%albumartist%" -T "DISCNUMBER=%cdnumber%" -T "TOTALDISCS=%totalcds%" -T "TOTALTRACKS=%numtracks%" -T "COMMENT=%comment%" %source% -o %dest%

TOC of the extracted CD

     Track |   Start  |  Length  | Start sector | End sector
    ---------------------------------------------------------
        1  |  0:00.00 |  3:29.12 |         0    |    15686
        2  |  3:29.12 |  3:08.37 |     15687    |    29823
        3  |  6:37.49 |  2:49.70 |     29824    |    42568
        4  |  9:27.44 |  3:25.64 |     42569    |    58007
        5  | 12:53.33 |  3:21.63 |     58008    |    73145
        6  | 16:15.21 |  3:40.19 |     73146    |    89664
        7  | 19:55.40 |  4:06.05 |     89665    |   108119
        8  | 24:01.45 |  2:56.08 |    108120    |   121327
        9  | 26:57.53 |  3:22.26 |    121328    |   136503
       10  | 30:20.04 |  2:56.54 |    136504    |   149757
       11  | 33:16.58 |  3:09.43 |    149758    |   163975

Track  1

     Filename C:\CD RIPS\Montgomery Gentry - Rebels On The Run (2011) [FLAC]\01 - Damn Right I Am.wav

     Pre-gap length  0:00:02.00

     Peak level 99.1 %
     Extraction speed 3.4 X
     Track quality 99.9 %
     Test CRC F5791682
     Copy CRC F5791682
     Accurately ripped (confidence 2)  [30ED6225]  (AR v1)
     Copy OK

Track  2

     Filename C:\CD RIPS\Montgomery Gentry - Rebels On The Run (2011) [FLAC]\02 - Ain't No Law Against That.wav

     Peak level 99.1 %
     Extraction speed 4.5 X
     Track quality 100.0 %
     Test CRC 8BE7C8A8
     Copy CRC 8BE7C8A8
     Accurately ripped (confidence 2)  [01037BD9]  (AR v1)
     Copy OK

Track  3

     Filename C:\CD RIPS\Montgomery Gentry - Rebels On The Run (2011) [FLAC]\03 - Damn Baby.wav

     Peak level 99.1 %
     Extraction speed 4.7 X
     Track quality 100.0 %
     Test CRC 9B764F9C
     Copy CRC 9B764F9C
     Accurately ripped (confidence 2)  [87FBD3F3]  (AR v1)
     Copy OK

Track  4

     Filename C:\CD RIPS\Montgomery Gentry - Rebels On The Run (2011) [FLAC]\04 - Empty.wav

     Peak level 99.1 %
     Extraction speed 4.2 X
     Track quality 99.9 %
     Test CRC EBF2A95C
     Copy CRC EBF2A95C
     Accurately ripped (confidence 2)  [2E5382CE]  (AR v1)
     Copy OK

Track  5

     Filename C:\CD RIPS\Montgomery Gentry - Rebels On The Run (2011) [FLAC]\05 - Where I Come From.wav

     Peak level 99.1 %
     Extraction speed 4.4 X
     Track quality 99.9 %
     Test CRC 8BEEB9DE
     Copy CRC 8BEEB9DE
     Accurately ripped (confidence 2)  [B75AAC98]  (AR v1)
     Copy OK

Track  6

     Filename C:\CD RIPS\Montgomery Gentry - Rebels On The Run (2011) [FLAC]\06 - I Like Those People.wav

     Peak level 99.1 %
     Extraction speed 5.9 X
     Track quality 100.0 %
     Test CRC 718931FF
     Copy CRC 718931FF
     Accurately ripped (confidence 2)  [C9BC2EF6]  (AR v1)
     Copy OK

Track  7

     Filename C:\CD RIPS\Montgomery Gentry - Rebels On The Run (2011) [FLAC]\07 - Rebels On The Run.wav

     Peak level 99.1 %
     Extraction speed 6.4 X
     Track quality 100.0 %
     Test CRC F4915982
     Copy CRC F4915982
     Accurately ripped (confidence 2)  [C3E4B200]  (AR v1)
     Copy OK

Track  8

     Filename C:\CD RIPS\Montgomery Gentry - Rebels On The Run (2011) [FLAC]\08 - Simple Things.wav

     Peak level 99.1 %
     Extraction speed 6.3 X
     Track quality 100.0 %
     Test CRC 9B6CFA20
     Copy CRC 9B6CFA20
     Accurately ripped (confidence 2)  [E168614F]  (AR v1)
     Copy OK

Track  9

     Filename C:\CD RIPS\Montgomery Gentry - Rebels On The Run (2011) [FLAC]\09 - Missing You.wav

     Peak level 99.1 %
     Extraction speed 6.7 X
     Track quality 100.0 %
     Test CRC 61D64957
     Copy CRC 61D64957
     Accurately ripped (confidence 2)  [F8C1AEF6]  (AR v1)
     Copy OK

Track 10

     Filename C:\CD RIPS\Montgomery Gentry - Rebels On The Run (2011) [FLAC]\10 - So CAlled Life.wav

     Peak level 99.1 %
     Extraction speed 6.8 X
     Track quality 100.0 %
     Test CRC 220ADD0D
     Copy CRC 220ADD0D
     Accurately ripped (confidence 2)  [33C16582]  (AR v1)
     Copy OK

Track 11

     Filename C:\CD RIPS\Montgomery Gentry - Rebels On The Run (2011) [FLAC]\11 - Work Hard, Play Harder.wav

     Peak level 99.1 %
     Extraction speed 5.8 X
     Track quality 99.9 %
     Test CRC 21FB1993
     Copy CRC 21FB1993
     Accurately ripped (confidence 2)  [14ECDAA8]  (AR v1)
     Copy OK

All tracks accurately ripped

No errors occurred

End of status report

---- CUETools DB Plugin V2.1.3

[CTDB TOCID: ._96M16OFFOLa.Ny_je6acIkTlo-] disk not present in database, Submit result: ._96M16OFFOLa.Ny_je6acIkTlo- has been uploaded

==== Log checksum F273CA96E6CFBD7BE32F79B2B0198500B1EAC800568E24D6B3A92651CFF37B77 ====

Отчёт auCDtect Task manager:

Код:

-----------------------

DON'T MODIFY THIS FILE

-----------------------

PERFORMER: auCDtect Task Manager, ver. 1.5.1RC6 build 1.5.1.7
Copyright (c) 2008-2010 y-soft. All rights reserved
http://y-soft.org

ANALYZER: auCDtect: CD records authenticity detector, version 0.8.2
Copyright (c) 2004 Oleg Berngardt. All rights reserved.
Copyright (c) 2004 Alexander Djourik. All rights reserved.

FILE: 10 - So CAlled Life.flac
  Size: 23015143 Hash: 9ADBA10C5BCC7E74EB8669B3EA0DCC6C Accuracy: -m0
  Conclusion: CDDA 100%
  Signature: 23DF011784549F74F09E6CA1A9E3BF9349246B63
FILE: 09 - Missing You.flac
  Size: 23601392 Hash: 3E352CED64FDC7264154E9D3941221FE Accuracy: -m0
  Conclusion: CDDA 100%
  Signature: 7CEEF46B0DB737C35D03B6DD9273459790076A19
FILE: 08 - Simple Things.flac
  Size: 21996254 Hash: 17F545CA8A84FB1D88676CF85102F54C Accuracy: -m0
  Conclusion: CDDA 100%
  Signature: 279D2BDAC77221D8F884079B8742D2CD3B780825
FILE: 07 - Rebels On The Run.flac
  Size: 29500042 Hash: A7AE7747889A377CAC515429CC8773E3 Accuracy: -m0
  Conclusion: CDDA 100%
  Signature: 8307D19ED47EC1B5C6D389B9A3E6144B02CEB32A
FILE: 06 - I Like Those People.flac
  Size: 25908828 Hash: F1B284DFA2C13473707FE60276B57181 Accuracy: -m0
  Conclusion: CDDA 100%
  Signature: A3E0CB58B9A4FE3B4ED011E04F326EF6E1BF1A0F
FILE: 05 - Where I Come From.flac
  Size: 25191092 Hash: 394A765E2C1B83454EC823790AB2526C Accuracy: -m0
  Conclusion: CDDA 100%
  Signature: FBC6DBBECD6A0613309D712EF2FC67044F639D11
FILE: 04 - Empty.flac
  Size: 23086588 Hash: 51C634B2005E4F8053B9A0D9FE85FB43 Accuracy: -m0
  Conclusion: CDDA 100%
  Signature: 0DDC2257F2EAD2C6C7E5C677EFFE3A792AD4717D
FILE: 03 - Damn Baby.flac
  Size: 20974606 Hash: CA551BA42AEBF3A2FEF754DE82A0309C Accuracy: -m0
  Conclusion: CDDA 100%
  Signature: 395729E3471E2CAD9CDD99EBF00BBBB55CF9E512
FILE: 02 - Ain't No Law Against That.flac
  Size: 23815586 Hash: 999D6702B811B28CC05C31CC3396B5F7 Accuracy: -m0
  Conclusion: CDDA 100%
  Signature: 2CBB6B511625D2BFCE3B72665A8B587305B1A413
FILE: 01 - Damn Right I Am.flac
  Size: 26286435 Hash: 43FD8C25A662B4559D0DC3FFC73CC785 Accuracy: -m0
  Conclusion: CDDA 100%
  Signature: 4D7617055B7736C9BD1AF87CB3388C7953B4EC09
FILE: 11 - Work Hard, Play Harder.flac
  Size: 23503255 Hash: DC8C851A0831F5265DD7D3CCD8D0B19C Accuracy: -m0
  Conclusion: CDDA 100%
  Signature: 7C4397519D6C074F8227C55C6EFA2872601C3479
Release Date: Oct 18, 2011
Детали торрента:
Название:Montgomery Gentry - Rebels On The Run (2011) [FLAC|Lossless]<Country-Rock, Neo-Traditionalist Country>
Дата добавления:09 Мар 2012 11:39:34
Размер:255 MB
Раздают:1
Качают:0
Форум:Folk (Lossless)

All rights reserved © 2015-2019