TORRENTS45.XYZ

Скачать Квартирный вопрос -"Американская мечта" (05.11.2011) SATRip


Квартирный вопрос -"Американская мечта" (05.11.2011) SATRip
Русское название: Квартирный вопрос
Режиссер / Телекомпания: НТВ плюс
Год выпуска: 05.11.2011
Жанр: Телепередача

Описание:
Герои этой программы – сторонники современных, лаконичных, даже минималистичных решений с минимальным количеством вещей, но с максимальным количеством возможностей. Дарья Касацкая и Филипп Тангалычев постарались не только оправдать, но и превзойти их ожидания. Обеденный стол одновременно является рабочей поверхностью; зеркала расширяют пространство и скрывают места хранения чаев и приправ; не говоря уже о техническом оснащении новой кухни, о котором впору писать целый трактат.

Хозяин гостиной, которую мы переделали вместе с дизайнерами Александрой Гатенян и Екатериной Чайковской, – большой поклонник американских интерьеров. А там, как известно, другие объемы и площади. И чтобы обмануть российские типовые метры, мы взяли на вооружение несколько беспроигрышных приемов, которые отлично раздвигают пространство.

Продолжительность: 00:47:59

Перевод: Оригинальный

Видеокодек: Xvid
Битрейт видео: ~1549 Кбит/с
Размер кадра: 640x480
Качество видео: SATRip
Аудиокодек: MP3 1 канала
Битрейт аудио: 96 Кбит/с

MI

Общее
Полное имя : D:\Doc.filmi\Квартирный вопрос\Kvartirnii.vopros.(05.11.2011).Amerikanskaja.mechta.2011.XviD.SATRip.[torrents45.xyz].avi
Формат : AVI
Формат/Информация : Audio Video Interleave
Размер файла : 568 Мбайт
Продолжительность : 47 м.
Общий поток : 1654 Кбит/сек
Программа кодирования : VirtualDubMod 1.5.10.3 | www.virtualdub-fr.org || (build 2550/release)
Библиотека кодирования : VirtualDubMod build 2550/release

Видео
Идентификатор : 0
Формат : MPEG-4 Visual
Профиль формата : Advanced Simple@L5
Параметр BVOP формата : 1
Параметр QPel формата : Нет
Параметр GMC формата : Без точки перехода
Параметр матрицы формата : Default (H.263)
Идентификатор кодека : XVID
Идентификатор кодека/Подсказка : XviD
Продолжительность : 47 м.
Битрейт : 1549 Кбит/сек
Ширина : 640 пикселей
Высота : 480 пикселей
Соотношение сторон : 4:3
Частота кадров : 25,000 кадров/сек
Цветовое пространство : YUV
Субдискретизация насыщенности : 4:2:0
Битовая глубина : 8 бит
Тип развёртки : Прогрессивная
Метод сжатия : С потерями
Бит/(Пиксели*Кадры) : 0.202
Размер потока : 532 Мбайт (94%)
Библиотека кодирования : XviD 1.2.1 (UTC 2008-12-04)

Аудио
Идентификатор : 1
Формат : MPEG Audio
Версия формата : Version 1
Профиль формата : Layer 3
Идентификатор кодека : 55
Идентификатор кодека/Подсказка : MP3
Продолжительность : 47 м.
Вид битрейта : Постоянный
Битрейт : 96,0 Кбит/сек
Каналы : 1 канал
Частота : 48,0 КГц
Метод сжатия : С потерями
Размер потока : 33,0 Мбайт (6%)
Выравнивание : Соединение по промежуткам
Продолжительность промежутка : 40 мс. (1,00 видеокадр)
Время предзагрузки промежутка : 504 мс.
Библиотека кодирования : LAME3.98r
Настройки программы : -m m -V 4 -q 2 -lowpass 20.5 -b 96
Скриншоты:



Квартирный вопрос на torrents45.xyz
Детали торрента:
Название:Квартирный вопрос -"Американская мечта" (05.11.2011) SATRip
Дата добавления:15 Фев 2012 14:00:14
Размер:568 MB
Раздают:
Качают:0
Форум:Дизайн

All rights reserved © 2015-2018