TORRENTS45.XYZ

Скачать Водопад Ангела / Водопад Серафима / Seraphim Falls (2006) [H.264] BDRip


Водопад Ангела / Водопад Серафима / Seraphim Falls (2006) [H.264] BDRip
Русское название: Водопад Ангела / Водопад Серафима
Оригинальное название: Seraphim Falls
Год выпуска: 2006
Жанр: Триллер, Драма, Вестерн

Описание фильма:
Гражданская война закончена, но не для всех. Небольшой отряд наемных стрелков, возглавляемый бывшим полковником армии Конфедератов Карвером, преследует экс-капитана армии Северян Гидеона. Погоня длится не один день, Гидеон ранен и обессилен, но по-прежнему опережает своих врагов. Что пробудило столь сильную ненависть Карвера, остается загадкой…

Режиссер: Дэвид Фон Энкен
Актеры: Лиам Нисон, Пирс Броснан, Майкл Уинкотт, Ксандер Беркли, Эд Лотер, Том Нунен, Кевин Дж. О`Коннор, Джон Робинсон, Анжелика Хьюстон, Энджи Хэрмон, Роберт Бэйкер, Уэс Студи, Джимми Симпсон, Джеймс Джордан, Нат Муни, Шеннон Зеллер, Генри Херман

Продолжительность: 01:51:51
Перевод: Многоголосый закадровый
Язык субтитров: Русские, английские
Вид субтитров: Вшитые (отключаемые)



Дата мировой премьеры: 13 сентября 2006
Дата выхода DVD релиза: 3 декабря 2009, «CP-Digital»

Видеокодек: MPEG-4 AVC/H.264
Битрейт видео: ~2293 Кбит/сек
Размер кадра: 1024х424
Качество видео: BDRip
Аудио 1: AC3 5.1, 448 Кбит/сек, 48,0 КГц, Русский
Аудио 2: AC3 5.1, 448 Кбит/сек, 48,0 КГц, Английский

MediaInfo:

Общее
Уникальный идентификатор : 194390482691852145887959311399441087851 (0x923E3EC24844FB6B8437F7D938C73D6B)
Полное имя : Водопад Ангела.2006.x264.BDRip.(AVC).mkv
Формат : Matroska
Версия формата : Version 2
Размер файла : 2,49 Гбайт
Продолжительность : 1 ч. 51 м.
Общий поток : 3188 Кбит/сек
Дата кодирования : UTC 2011-04-29 11:45:47
Программа кодирования : mkvmerge v4.0.0 ('The Stars were mine') сборка от Jun 6 2010 16:18:42
Библиотека кодирования : libebml v1.0.0 + libmatroska v1.0.0

Видео
Идентификатор : 1
Формат : AVC
Формат/Информация : Advanced Video Codec
Профиль формата : High@L4.1
Параметр CABAC формата : Да
Параметр ReFrames формата : 8 кадров
Идентификатор кодека : V_MPEG4/ISO/AVC
Продолжительность : 1 ч. 51 м.
Битрейт : 2293 Кбит/сек
Ширина : 1024 пикселя
Высота : 424 пикселя
Соотношение сторон : 2,40:1
Частота кадров : 23,976 кадра/сек
Цветовое пространство : YUV
Субдискретизация насыщенности : 4:2:0
Битовая глубина : 8 бит
Тип развёртки : Прогрессивная
Бит/(Пиксели*Кадры) : 0.220
Размер потока : 1,74 Гбайт (70%)
Библиотека кодирования : x264 core 92 r1510 33d382a
Настройки программы : cabac=1 / ref=8 / deblock=1:-1:-1 / analyse=0x3:0x133 / me=umh / subme=7 / psy=1 / psy_rd=1.00:0.10 / mixed_ref=1 / me_range=16 / chroma_me=1 / trellis=2 / 8x8dct=1 / cqm=0 / deadzone=21,11 / fast_pskip=0 / chroma_qp_offset=-3 / threads=3 / sliced_threads=0 / nr=0 / decimate=1 / interlaced=0 / constrained_intra=0 / bframes=3 / b_pyramid=2 / b_adapt=2 / b_bias=0 / direct=3 / wpredb=1 / wpredp=2 / keyint=250 / keyint_min=25 / scenecut=40 / intra_refresh=0 / rc_lookahead=50 / rc=2pass / mbtree=1 / bitrate=2293 / ratetol=1.0 / qcomp=0.60 / qpmin=10 / qpmax=51 / qpstep=4 / cplxblur=20.0 / qblur=0.5 / ip_ratio=1.40 / aq=1:1.00
Язык : English
Default : Нет
Forced : Нет

Аудио #1
Идентификатор : 2
Формат : AC-3
Формат/Информация : Audio Coding 3
Расширение режима : CM (complete main)
Идентификатор кодека : A_AC3
Продолжительность : 1 ч. 51 м.
Вид битрейта : Постоянный
Битрейт : 448 Кбит/сек
Каналы : 6 каналов
Расположение каналов : Front: L C R, Side: L R, LFE
Частота : 48,0 КГц
Битовая глубина : 16 бит
Метод сжатия : С потерями
Размер потока : 358 Мбайт (14%)
Язык : Russian
Default : Да
Forced : Нет

Аудио #2
Идентификатор : 3
Формат : AC-3
Формат/Информация : Audio Coding 3
Расширение режима : CM (complete main)
Идентификатор кодека : A_AC3
Продолжительность : 1 ч. 51 м.
Вид битрейта : Постоянный
Битрейт : 448 Кбит/сек
Каналы : 6 каналов
Расположение каналов : Front: L C R, Side: L R, LFE
Частота : 48,0 КГц
Битовая глубина : 16 бит
Метод сжатия : С потерями
Размер потока : 358 Мбайт (14%)
Язык : English
Default : Нет
Forced : Нет

Текст #1
Идентификатор : 4
Формат : UTF-8
Идентификатор кодека : S_TEXT/UTF8
Идентификатор кодека/Информация : UTF-8 Plain Text
Язык : Russian
Default : Да
Forced : Нет

Текст #2
Идентификатор : 5
Формат : UTF-8
Идентификатор кодека : S_TEXT/UTF8
Идентификатор кодека/Информация : UTF-8 Plain Text
Язык : English
Default : Нет
Forced : Нет
Скриншоты:



Смотреть Online

http://moonwalk.cc/video/5614cce4b07270a5c6f70e82cff1b079/iframe
Детали торрента:
Название:Водопад Ангела / Водопад Серафима / Seraphim Falls (2006) [H.264] BDRip
Дата добавления:14 Фев 2012 16:43:44
Размер:2,49 GB
Раздают:
Качают:0
Форум:Зарубежные Фильмы (HD*Rip/LQ, DVDRip, SATRip, VHSRip)

All rights reserved © 2015-2018