TORRENTS45.XYZ

Скачать Иван Царевич и Серый Волк (2011) [H.264/1080р-LQ] BDRip


Иван Царевич и Серый Волк (2011) [H.264/1080р-LQ] BDRip
Русское название: Иван Царевич и Серый Волк
Год выпуска: 2011
Жанр: Мультфильм, Семейный, Комедия
Описание фильма:

Увлекательная история от создателей богатырской трилогии, в которой героев русских народных сказок ждут новые приключения, опасности и забавные ситуации.

Режиссер: Владимир Торопчин

Роли озвучивали:

Никита Ефремов, Иван Охлобыстин, Артур Смольянинов, Лия Ахеджакова, Кристина Асмус, Виктор Сухоруков, Сергей Гармаш, Михаил Боярский.
Продолжительность: 01:25:58

Контейнер: MKV
Видеокодек: MPEG-4 AVC/H.264
Битрейт видео: ~2000 Kbps
Размер кадра: 1920x1024
Качество видео: BDRip
Аудиокодек: AC3 5.1
Битрейт аудио: 256 Kbps Front: L C R, Side: L R, LFE

Media Info

General
Unique ID : 182020618281249943238248443459305109131 (0x88EFE55B4CBD27CD816A3C89F9FE768B)
Complete name : Иван Царевич и Серый Волк.mkv
Format : Matroska
Format version : Version 2
File size : 1.35 GiB
Duration : 1h 25mn
Overall bit rate : 2 254 Kbps
Movie name : Иван Царевич и Серый Волк (rip by smithland)
Encoded date : UTC 2012-02-08 20:39:25
Writing application : mkvmerge v5.2.1 ('A Far Off Place')
Writing library : libebml v1.2.3 + libmatroska v1.3.0
Attachment : Yes

Video
ID : 1
Format : AVC
Format/Info : Advanced Video Codec
Format profile : High@L4.0
Format settings, CABAC : Yes
Format settings, ReFrames : 4 frames
Codec ID : V_MPEG4/ISO/AVC
Duration : 1h 25mn
Bit rate : 2 000 Kbps
Width : 1 920 pixels
Height : 1 024 pixels
Display aspect ratio : 16:9
Original display aspect ratio : 16:9
Frame rate mode : Variable
Frame rate : 23.976 fps
Color space : YUV
Chroma subsampling : 4:2:0
Bit depth : 8 bits
Scan type : Progressive
Bits/(Pixel*Frame) : 0.042
Stream size : 1.17 GiB (87%)
Writing library : x264 core 120 r2146
Encoding settings : cabac=1 / ref=4 / deblock=1:-1:1 / analyse=0x3:0x133 / me=esa / subme=9 / psy=1 / psy_rd=1.50:0.50 / mixed_ref=0 / me_range=32 / chroma_me=1 / trellis=1 / 8x8dct=1 / cqm=0 / deadzone=21,11 / fast_pskip=1 / chroma_qp_offset=-4 / threads=6 / sliced_threads=0 / nr=0 / decimate=1 / interlaced=0 / bluray_compat=0 / constrained_intra=0 / bframes=4 / b_pyramid=2 / b_adapt=1 / b_bias=0 / direct=3 / weightb=1 / open_gop=1 / weightp=2 / keyint=230 / keyint_min=23 / scenecut=80 / intra_refresh=0 / rc_lookahead=40 / rc=abr / mbtree=1 / bitrate=2000 / ratetol=1.0 / qcomp=0.60 / qpmin=10 / qpmax=69 / qpstep=4 / vbv_maxrate=20000 / vbv_bufsize=20000 / nal_hrd=none / ip_ratio=1.40 / aq=1:1.00
Language : Russian
Default : Yes
Forced : Yes

Audio
ID : 2
Format : AC-3
Format/Info : Audio Coding 3
Mode extension : CM (complete main)
Codec ID : A_AC3
Duration : 1h 25mn
Bit rate mode : Constant
Bit rate : 256 Kbps
Channel(s) : 6 channels
Channel positions : Front: L C R, Side: L R, LFE
Sampling rate : 48.0 KHz
Bit depth : 16 bits
Compression mode : Lossy
Stream size : 157 MiB (11%)
Language : Russian
Default : Yes
Forced : Yes

Menu
00:00:00.000 : :ëࢠ 01
00:04:00.000 : :ëࢠ 02
00:08:00.000 : :ëࢠ 03
00:12:00.000 : :ëࢠ 04
00:16:00.000 : :ëࢠ 05
00:20:00.000 : :ëࢠ 06
00:24:00.000 : :ëࢠ 07
00:28:00.000 : :ëࢠ 08
00:32:00.000 : :ëࢠ 09
00:36:00.000 : :ëࢠ 10
00:40:00.000 : :ëࢠ 11
00:44:00.000 : :ëࢠ 12
00:48:00.000 : :ëࢠ 13
00:52:00.000 : :ëࢠ 14
00:56:00.000 : :ëࢠ 15
01:00:00.000 : :ëࢠ 16
01:04:00.000 : :ëࢠ 17
01:08:00.000 : :ëࢠ 18
01:12:00.000 : :ëࢠ 19
01:16:00.000 : :ëࢠ 20
01:20:00.000 : :ëࢠ 21
01:24:00.000 : :ëࢠ 22

Скриншоты:


Смотреть Online

Детали торрента:
Название:Иван Царевич и Серый Волк (2011) [H.264/1080р-LQ] BDRip
Дата добавления:09 Фев 2012 14:05:06
Размер:1,35 GB
Раздают:4
Качают:0
Форум:Отечественные Мультфильмы (HD, UHD, UHD-LQ, DVD, Сборники)

All rights reserved © 2015-2019