TORRENTS45.XYZ

Скачать NG: Апокалипсис: Вторая мировая война: Развязывание войны / National Geographic: Apocalypse. World War II. The outbreak of war (2009 (эфир от 21.01.2012)) IPTVRip


NG: Апокалипсис: Вторая мировая война: Развязывание войны / National Geographic: Apocalypse. World War II. The outbreak of war (2009 (эфир от 21.01.2012)) IPTVRip
Русское название: NG: Апокалипсис: Вторая мировая война: Развязывание войны
Оригинальное название: National Geographic: Apocalypse. World War II. The outbreak of war
Режиссер / Телекомпания: США, National Geographic Channels
Год выпуска: 2009 (эфир от 21.01.2012)
Жанр: Документальный

Описание:
С помощью редких киноматериалов 1939 года фильм ярко воссоздает события начала войны, включая нападение на Польшу и создание лодзинского гетто.

Продолжительность: 00:46:58
Перевод: Одноголосый закадровый, профессиональный



Файл: AVI
Качество видео: IPTVRip
Видео: DivX, 1672 Кбит/с, 704x400
Аудио: MP3, 2 ch, 192 Кбит/с, 48,0 КГц

MediaInfo

Общее
Полное имя : S:\Video\Other\Documental\Apokalipsis.2.mirovaia.vojna.2012.DivX.IPTVRip.avi
Формат : AVI
Формат/Информация : Audio Video Interleave
Размер файла : 630 Мбайт
Продолжительность : 46 м.
Общий поток : 1874 Кбит/сек
Программа кодирования : VirtualDubMod 1.5.10.2 (build 2540/release)
Библиотека кодирования : VirtualDubMod build 2540/release

Видео
Идентификатор : 0
Формат : MPEG-4 Visual
Профиль формата : Advanced Simple@L5
Параметр BVOP формата : 2
Параметр QPel формата : Нет
Параметр GMC формата : Без точки перехода
Параметр матрицы формата : Default (H.263)
Идентификатор кодека : DIVX
Идентификатор кодека/Информация : Project Mayo
Идентификатор кодека/Подсказка : DivX 4
Продолжительность : 46 м.
Битрейт : 1599 Кбит/сек
Ширина : 704 пикселя
Высота : 400 пикселей
Соотношение сторон : 16:9
Частота кадров : 25,000 кадров/сек
Цветовое пространство : YUV
Субдискретизация насыщенности : 4:2:0
Битовая глубина : 8 бит
Тип развёртки : Прогрессивная
Метод сжатия : С потерями
Бит/(Пиксели*Кадры) : 0.227
Размер потока : 537 Мбайт (85%)
Библиотека кодирования : XviD 1.2.1 (UTC 2008-12-04)

Аудио
Идентификатор : 1
Формат : MPEG Audio
Версия формата : Version 1
Профиль формата : Layer 3
Идентификатор кодека : 55
Идентификатор кодека/Подсказка : MP3
Продолжительность : 46 м.
Вид битрейта : Постоянный
Битрейт : 192 Кбит/сек
Каналы : 2 канала
Частота : 48,0 КГц
Метод сжатия : С потерями
Размер потока : 64,5 Мбайт (10%)
Выравнивание : Соединение по промежуткам
Библиотека кодирования : LAME3.98r
Настройки программы : -m s -V 4 -q 2 -lowpass 18.6 -b 192

Детали торрента:
Название:NG: Апокалипсис: Вторая мировая война: Развязывание войны / National Geographic: Apocalypse. World War II. The outbreak of war (2009 (эфир от 21.01.2012)) IPTVRip
Дата добавления:22 Янв 2012 15:35:55
Размер:630 MB
Раздают:
Качают:0
Форум:National Geographic

All rights reserved © 2015-2018