TORRENTS45.XYZ

Скачать Высоцкий. Спасибо, что живой (2011) HDRip


Высоцкий. Спасибо, что живой (2011) HDRip
Русское название: Высоцкий. Спасибо, что живой
Год выпуска: 2011
Производство: Россия, Дирекция Кино
Жанр: Драма, Биография
Перевод: Оригинал

Дата мировой премьеры: 1 декабря 2011
Дата российской премьеры: 1 декабря 2011, «WDSSPR»
Дата выхода DVD релиза: 19 января 2012, «Флагман-Трейд»

Режиссер: Петр Буслов
Актеры: Оксана Акиньшина, Сергей Безруков, Андрей Смоляков, Иван Ургант, Максим Леонидов, Андрей Панин, Владимир Ильин, Дмитрий Астрахан, Анна Ардова, Владимир Меньшов

Описание фильма:
Действие фильма разворачивается в 1979 году, когда на одном из концертов Высоцкому становится плохо с сердцем. Он переживает клиническую смерть.


Продолжительность: 02:12:08
Качество видео: HDRip [Рип с Bluray 1080p]

Видеокодек: XviD
Битрейт видео: ~1824 kb/s
Размер кадра: 720x304
Аудиокодек: AC-3 5.1
Битрейт аудио: 384 kb/s
Сэмпл: Скачать

MediaInfo

Общее
Полное имя : E:\Vusotzkij.2011.O.HDRip.torrents45.xyz.avi
Формат : AVI
Формат/Информация : Audio Video Interleave
Профиль формата : OpenDML
Размер файла : 2,05 Гбайт
Продолжительность : 2 ч. 12 м.
Общий поток : 2220 Кбит/сек
Программа кодирования : VirtualDubMod 1.5.10.3 | www.virtualdub-fr.org || (build 2550/release)
Библиотека кодирования : VirtualDubMod build 2550/release

Видео
Идентификатор : 0
Формат : MPEG-4 Visual
Профиль формата : Advanced Simple@L5
Параметр BVOP формата : 2
Параметр QPel формата : Нет
Параметр GMC формата : Без точки перехода
Параметр матрицы формата : Выборочная
Режим смешивания : Сжатый битовый поток
Идентификатор кодека : XVID
Идентификатор кодека/Подсказка : XviD
Продолжительность : 2 ч. 12 м.
Битрейт : 1824 Кбит/сек
Ширина : 720 пикселей
Высота : 304 пикселя
Соотношение сторон : 2,35:1
Частота кадров : 23,976 кадра/сек
Цветовое пространство : YUV
Субдискретизация насыщенности : 4:2:0
Битовая глубина : 8 бит
Тип развёртки : Прогрессивная
Метод сжатия : С потерями
Бит/(Пиксели*Кадры) : 0.348
Размер потока : 1,68 Гбайт (82%)
Библиотека кодирования : XviD 58

Аудио
Идентификатор : 1
Формат : AC-3
Формат/Информация : Audio Coding 3
Расширение режима : CM (complete main)
Идентификатор кодека : 2000
Продолжительность : 2 ч. 12 м.
Вид битрейта : Постоянный
Битрейт : 384 Кбит/сек
Каналы : 6 каналов
Расположение каналов : Front: L C R, Side: L R, LFE
Частота : 48,0 КГц
Битовая глубина : 16 бит
Метод сжатия : С потерями
Размер потока : 363 Мбайт (17%)
Выравнивание : Разделение по промежуткам
Продолжительность промежутка : 42 мс. (1,00 видеокадр)
Время предзагрузки промежутка : 500 мс.
Скриншоты:

Смотреть Online

http://37.220.36.15/video/396cf395bd7f8485/iframe
Детали торрента:
Название:Высоцкий. Спасибо, что живой (2011) HDRip
Дата добавления:20 Янв 2012 05:27:09
Размер:2,05 GB
Раздают:
Качают:0
Форум:Архив Видео

All rights reserved © 2015-2018