TORRENTS45.XYZ

Скачать Мы смерти смотрели в лицо (1980) DVDRip


Мы смерти смотрели в лицо (1980) DVDRip
Производство: СССР
Жанр: Киноповесть

Режиссер: Наум Бирман
Актеры: Олег Даль, Любовь Малиновская, Лариса Толкачева, Юра Жуков, Борис Бирман (Вишневский), Ольга Кузнецова, Юля Слезкинская, Саша Довгалев, Саша Зенкевич, Игорь Кустов, Юра Федоров

Описание:
В основе сюжета - подлинные факты. В марте 1942 бывший балетмейстер, а теперь - лейтенант Обрант (по фильму - Корбут) получил задание политотдела создать танцевальную группу. В блокадном Ленинграде он разыскал бывших своих учеников и привез на Ленинградский фронт, а через несколько дней юные танцоры дали свой первый концерт перед бойцами, вернувшимися с передовой...



Продолжительность: 01:10:17
Качество видео: DVDRip
Скриншоты: отсутствуют

Видео: Xvid, 720x552, ~1800 kbps
Аудио: AC3, 1 ch, 64 kbps

MediaInfo:


Общее
Полное имя : Мы смерти смотрели в лицо.1980.DVDRip.[torrents45.xyz].avi
Формат : AVI
Формат/Информация : Audio Video Interleave
Размер файла : 942 Мбайт
Продолжительность : 1 ч. 10 м.
Общий поток : 1874 Кбит/сек
Программа кодирования : Lavf52.38.0
Библиотека кодирования : VirtualDub build 32618/release

Видео
Идентификатор : 0
Формат : MPEG-4 Visual
Профиль формата : Advanced Simple@L5
Параметр BVOP формата : 2
Параметр QPel формата : Нет
Параметр GMC формата : Без точки перехода
Параметр матрицы формата : Default (H.263)
Идентификатор кодека : XVID
Идентификатор кодека/Подсказка : XviD
Продолжительность : 1 ч. 10 м.
Битрейт : 1800 Кбит/сек
Ширина : 720 пикселей
Высота : 552 пикселя
Соотношение сторон : 4:3
Частота кадров : 25,000 кадров/сек
Цветовое пространство : YUV
Субдискретизация насыщенности : 4:2:0
Битовая глубина : 8 бит
Тип развёртки : Прогрессивная
Метод сжатия : С потерями
Бит/(Пиксели*Кадры) : 0.181
Размер потока : 905 Мбайт (96%)
Библиотека кодирования : XviD 1.2.1 (UTC 2008-12-04)

Аудио
Идентификатор : 1
Формат : MPEG Audio
Версия формата : Version 1
Профиль формата : Layer 3
Идентификатор кодека : 55
Идентификатор кодека/Подсказка : MP3
Продолжительность : 1 ч. 10 м.
Вид битрейта : Постоянный
Битрейт : 64,0 Кбит/сек
Каналы : 1 канал
Частота : 48,0 КГц
Метод сжатия : С потерями
Размер потока : 32,2 Мбайт (3%)
Выравнивание : Разделение по промежуткам
Продолжительность промежутка : 40 мс. (1,00 видеокадр)
Время предзагрузки промежутка : 500 мс.
Скриншоты:

Дополнительные скриншоты:



Все одноименные релизы в Клубе
Детали торрента:
Название:Мы смерти смотрели в лицо (1980) DVDRip
Дата добавления:20 Янв 2012 02:56:08
Размер:942 MB
Раздают:2
Качают:0
Форум:Отечественная Классика (HD*Rip/LQ, DVDRip, SATRip, VHSRip)

All rights reserved © 2015-2018