TORRENTS45.XYZ

Скачать Технология спаивания (2012) Super-TS


Технология спаивания (2012) Super-TS
Русское название: Технология спаивания (2012)
Режиссер / Телекомпания: kobtv
Год выпуска: 2012
Жанр: Документальный

Описание:
Темы фильма
Пить в меру безвредно?
Почему пиво считается алкоголем?
Почему алкоголь греет в мороз?
Что такое опьянение?
В чём главное отличие алкоголя от наркотиков?
Красное вино полезно?
Действительно ли алкоголь разрушает мозг?
Как алкоголь снимает стресс?
Почему можно пить только с 18 лет?

Продолжительность: 00:36:20

Видеокодек: MPEG-4 AVC/H.264
Битрейт видео: ~2 018 Kbps
Размер кадра: 852 pixels X 480 pixels
Качество видео: Super-TS
Аудиокодек: AAC
Битрейт аудио: 128 Kbps

MediaInfo

Format : MPEG-4
Format profile : Base Media / Version 2
Codec ID : mp42
File size : 558 MiB
Duration : 36mn 20s
Overall bit rate : 2 145 Kbps
Movie name : Технология спаивания (2012(
Encoded date : UTC 2012-01-11 18:45:48
Tagged date : UTC 2012-01-11 18:46:17

Video
ID : 1
Format : AVC
Format/Info : Advanced Video Codec
Format profile : Main@L3.1
Format settings, CABAC : No
Format settings, ReFrames : 2 frames
Format settings, GOP : M=1, N=30
Codec ID : avc1
Codec ID/Info : Advanced Video Coding
Duration : 36mn 20s
Bit rate mode : Variable
Bit rate : 2 018 Kbps
Width : 852 pixels
Height : 480 pixels
Display aspect ratio : 16:9
Frame rate mode : Constant
Frame rate : 29.970 fps
Color space : YUV
Chroma subsampling : 4:2:0
Bit depth : 8 bits
Scan type : Progressive
Bits/(Pixel*Frame) : 0.165
Stream size : 525 MiB (94%)
Language : English
Encoded date : UTC 2012-01-11 18:45:46
Tagged date : UTC 2012-01-11 18:46:17
Color primaries : BT.709-5, BT.1361, IEC 61966-2-4, SMPTE RP177
Transfer characteristics : BT.709-5, BT.1361
Matrix coefficients : BT.709-5, BT.1361, IEC 61966-2-4 709, SMPTE RP177

Audio
ID : 2
Format : AAC
Format/Info : Advanced Audio Codec
Format profile : LC
Codec ID : 40
Duration : 36mn 20s
Bit rate mode : Constant
Bit rate : 128 Kbps
Channel(s) : 2 channels
Channel positions : Front: L R
Sampling rate : 32.0 KHz
Compression mode : Lossy
Stream size : 32.1 MiB (6%)
Language : English
Encoded date : UTC 2012-01-11 18:45:46
Tagged date : UTC 2012-01-11 18:46:17
Скриншоты:


ещё скриншоты



Детали торрента:
Название:Технология спаивания (2012) Super-TS
Дата добавления:15 Янв 2012 15:02:40
Размер:558 MB
Раздают:
Качают:0
Форум:Документалистика и Телепередачи

All rights reserved © 2015-2019