TORRENTS45.XYZ

Скачать Гармония (1977) DVDRip


Гармония (1977) DVDRip
Русское название: Гармония
Год выпуска: 1977
Жанр: Киноповесть, драма, мелодрама
Выпущено: Свердловская к/ст, СССР

Описание фильма:
Группа конструкторов и дизайнеров тракторного завода работает над созданием новой модели. Талантливый дизайнер Герман Бакланов стремится к гармонии проектируемой машины, несмотря на то, что завод еще не в состоянии перейти на новые технологии производства...

Режиссер: Виктор Живолуб
Актеры: Юрий Каморный, Михаил Глузский, Антонина Лефтий, Андрей Праченко, Нина Гребешкова, Владимир Сичкарь, Анатолий Соловьев, Ольга Гудкова, Александр Белина

Продолжительность: 01:31:19



Видеокодек: DivX 5
Битрейт видео: ~1500 kb/s
Размер кадра: 704 x 432
Качество видео: DVDRip
Аудиокодек: AC3
Битрейт аудио: 160 kb/s, 2 ch

MediaInfo

Общее
Полное имя : Гармония.1977.DVDRip.[torrents45.xyz].avi
Формат : AVI
Формат/Информация : Audio Video Interleave
Размер файла : 908 Мбайт
Продолжительность : 1 ч. 15 м.
Общий поток : 1690 Кбит/сек
Название фильма : Гармония (1977)
Тема : DVDRip
Программа кодирования : VirtualDubMod 1.5.10.2 (build 2542/release)
Библиотека кодирования : VirtualDubMod build 2542/release

Видео
Идентификатор : 0
Формат : MPEG-4 Visual
Параметр BVOP формата : 1
Параметр QPel формата : Нет
Параметр GMC формата : Без точки перехода
Параметр матрицы формата : Default (H.263)
Режим смешивания : Сжатый битовый поток
Идентификатор кодека : DX50
Идентификатор кодека/Подсказка : DivX 5
Продолжительность : 1 ч. 15 м.
Битрейт : 1520 Кбит/сек
Ширина : 704 пикселя
Высота : 432 пикселя
Соотношение сторон : 1,630
Частота кадров : 25,000 кадров/сек
Цветовое пространство : YUV
Субдискретизация насыщенности : 4:2:0
Битовая глубина : 8 бит
Тип развёртки : Прогрессивная
Метод сжатия : С потерями
Бит/(Пиксели*Кадры) : 0.200
Размер потока : 817 Мбайт (90%)
Библиотека кодирования : DivX 6.2.5 (UTC 2006-07)

Аудио
Идентификатор : 1
Формат : AC-3
Формат/Информация : Audio Coding 3
Расширение режима : CM (complete main)
Идентификатор кодека : 2000
Продолжительность : 1 ч. 15 м.
Вид битрейта : Постоянный
Битрейт : 160 Кбит/сек
Каналы : 2 канала
Расположение каналов : Front: L R
Частота : 48,0 КГц
Битовая глубина : 16 бит
Метод сжатия : С потерями
Размер потока : 86,0 Мбайт (9%)
Выравнивание : Разделение по промежуткам
Продолжительность промежутка : 40 мс. (1,00 видеокадр)
Время предзагрузки промежутка : 500 мс.
Язык : 5 / @5
Скриншоты:


Смотреть Online

http://moonwalk.cc/video/fa96be2f26e40e92/iframe
Детали торрента:
Название:Гармония (1977) DVDRip
Дата добавления:10 Янв 2012 14:34:31
Размер:908 MB
Раздают:1
Качают:0
Форум:Старые Отечественные Фильмы (HD*Rip/LQ, DVDRip, SATRip, VHSRip)

All rights reserved © 2015-2018