TORRENTS45.XYZ

Скачать Неприкасаемые / Les Lyonnais (2011) CamRip


Неприкасаемые / Les Lyonnais (2011) CamRip
Русское название: Неприкасаемые
Оригинальное название: Les Lyonnais
Год выпуска: 2011
Производство: Франция, LGM Productions
Жанр: Криминал, Драма
Перевод: Дублированный
Субтитры: Отсутствуют

Дата мировой премьеры: 11 ноября 2011
Дата российской премьеры: 8 декабря 2011, «Централ Партнершип»

Режиссер: Оливье Маршаль
Продюсер: Сирил Колбо-Жустин, Жан-Баптист Дюпон, Джереми Бурдек
Актеры: Жерар Ланвен, Чеки Карио, Даниэль Дюваль, Патрик Каталифо, Франсуа Леванталь, Франсис Рено, Лайонел Астье, Валерия Кавалли, Эстелл Скорник

Описание фильма:
История самой крутой группировки опасных преступников на юге Франции, которая лихо грабила банки в начале 70-х…



Продолжительность: 01:36:11
Качество видео: CamRip

Видеокодек: Xvid
Битрейт видео: ~885 Kbit/s
Размер кадра: 720 x 288
Аудиокодек: MP3 2.0
Битрейт аудио: 128 Kbit/s

MediaInfo

Общее
Полное имя : D:\Торренты\Неприкасаемые .2011.CAMRip.avi
Формат : AVI
Формат/Информация : Audio Video Interleave
Размер файла : 705 Мбайт
Продолжительность : 1 ч. 36 м.
Общий поток : 1025 Кбит/сек
Программа кодирования : Lavf50.6.0

Видео
Идентификатор : 0
Формат : xvid
Идентификатор кодека : xvid
Продолжительность : 1 ч. 36 м.
Битрейт : 885 Кбит/сек
Ширина : 720 пикс.
Высота : 288 пикс.
Соотношение сторон : 2,500
Частота кадров : 23,976 кадр/сек
Бит/(Пиксели*Кадры) : 0.178
Размер потока : 609 Мбайт (86%)

Аудио
Идентификатор : 1
Формат : MPEG Audio
Версия формата : Version 1
Профиль формата : Layer 3
Режим : Joint stereo
Расширение режима : MS Stereo
Идентификатор кодека : 55
Идентификатор кодека/Подсказка : MP3
Продолжительность : 1 ч. 36 м.
Вид битрейта : Постоянный
Битрейт : 128 Кбит/сек
Каналы : 2 канала
Частота : 44,1 КГц
Метод сжатия : С потерями
Размер потока : 88,1 Мбайт (12%)
Выравнивание : Соединение по промежуткам
Продолжительность промежутка : 26 мс. (0,63 видеокадр)
Время предзагрузки промежутка : 26 ms

Скриншоты:

Смотреть Online

Детали торрента:
Название:Неприкасаемые / Les Lyonnais (2011) CamRip
Дата добавления:12 Дек 2011 00:54:43
Размер:705 MB
Раздают:
Качают:0
Форум:Архив неактуальных Экранок и видео с Рекламой

All rights reserved © 2015-2019