TORRENTS45.XYZ

Скачать Волшебное рождество у Микки. Новогодние каникулы с Микки, Дональдом и друзьями / Mickey's Magical Christmas. Celebrate Christmas with Mickey, Donald and friends (2001-2004) DVDRip


Волшебное рождество у Микки. Новогодние каникулы с Микки, Дональдом и друзьями / Mickey's Magical Christmas. Celebrate Christmas with Mickey, Donald and friends (2001-2004) DVDRip
Год выпуска: 2001-2004
Жанр: мультфильм, комедия, приключения, семейный



Описание: Волшебное Рождество у Микки. Запертые снегом в мышином доме. Присоединяйтесь к компании Микки и других суперзвезд Диснеевской анимации. Впервые все вместе Вы сможете отпраздновать самый любимый из всех праздников и спеть особенную песню "Самое Лучшее Рождество", без которой немыслимо это волшебное событие. Когда из-за снежной бури все вынуждены остаться дома, Микки и гости с Мышиного Дома, включая Пуха, Поросенка, Бэлль, Белоснежку, Ариэль и многих других старых и новых друзей, изо всех сил пытаются с помощью печенья и горячего шоколада развеселить Дональда и исправить его испорченное рождественское настроение. Веселье начинается, когда Минни предлагает посмотреть любимые праздничные фильмы, и все предаются приятным воспоминаниям, которые волшебным образом создают рождественскую атмосферу вокруг - даже сварливый Дональд начинает веселиться и, в конце концов, становится настоящей звездой вечера. Все вместе друзья поют главную песню праздника "Самое Лучшее Рождество", и каждый готов поделиться этим волшебным моментом с Вами!
Новогодние каникулы с Микки, Дональдом и друзьями. ]Отпразднуйте самый любимый праздник в году вместе с великолепным анимационным подарком от Микки, Дональда и всех друзей Диснея. Забавные приключения Плуто, Быка Фердинанда и других героев собраны в этой замечательной коллекции сказок Диснея, которая станет прекрасным развлечением для всех. Вместе с Дональдом и его племянниками Вы проведете чудесный зимний день, а Микки и Минни пригласят Вас покататься на коньках. Веселитесь вместе с героями студии Дисней, и это станет еще одной рождественской традицией для Вас и Вашей семьи.

Режиссер: Бэрни Мэттинсон, Робертс Ганнавей, Тони Крэйг

Продолжительность: 2 х ~ 00:53:42
Перевод: Дублированный

Видеокодек: Xvid
Битрейт видео: ~1690 Кбит/с
Размер кадра: 720x544
Качество видео: DVDRip
Аудиокодек: AC3 5.1
Битрейт аудио: 192 Кбит/с

MediaInfo

Волшебное Рождество у Микки.

Формат : AVI
Формат/Информация : Audio Video Interleave
Размер файла : 701 Мбайт
Продолжительность : 59 м.
Общий поток : 1656 Кбит/сек
Программа кодирования : VirtualDubMod 1.5.4.1 (build 2178/release)
Библиотека кодирования : VirtualDubMod build 2178/release

Видео
Идентификатор : 0
Формат : MPEG-4 Visual
Профиль формата : Advanced Simple@L5
Параметр BVOP формата : 1
Параметр QPel формата : Нет
Параметр GMC формата : Без точки перехода
Параметр матрицы формата : Выборочная
Идентификатор кодека : XVID
Идентификатор кодека/Подсказка : XviD
Продолжительность : 59 м.
Битрейт : 1457 Кбит/сек
Ширина : 720 пикселей
Высота : 544 пикселя
Соотношение сторон : 4:3
Частота кадров : 25,000 кадров/сек
Цветовое пространство : YUV
Субдискретизация насыщенности : 4:2:0
Битовая глубина : 8 бит
Тип развёртки : Прогрессивная
Метод сжатия : С потерями
Бит/(Пиксели*Кадры) : 0.149
Размер потока : 617 Мбайт (88%)
Библиотека кодирования : XviD 1.2.0.dev47 (UTC 2006-11-01)

Аудио
Идентификатор : 1
Формат : AC-3
Формат/Информация : Audio Coding 3
Профиль формата : Dolby Digital
Расширение режима : CM (complete main)
Идентификатор кодека : 2000
Продолжительность : 59 м.
Вид битрейта : Постоянный
Битрейт : 192 Кбит/сек
Каналы : 2 канала
Расположение каналов : Front: L R
Частота : 48,0 КГц
Битовая глубина : 16 бит
Метод сжатия : С потерями
Размер потока : 81,3 Мбайт (12%)
Выравнивание : Разделение по промежуткам
Продолжительность промежутка : 96 мс. (2,40 видеокадра)
Время предзагрузки промежутка : 96 мс.
Язык : Russian

Новогодние каникулы с Микки, Дональдом и друзьями.

Формат : AVI
Формат/Информация : Audio Video Interleave
Размер файла : 699 Мбайт
Продолжительность : 50 м.
Общий поток : 1928 Кбит/сек
Программа кодирования : VirtualDubMod 1.5.4.1 (build 2178/release)
Библиотека кодирования : VirtualDubMod build 2178/release

Видео
Идентификатор : 0
Формат : MPEG-4 Visual
Профиль формата : Advanced Simple@L5
Параметр BVOP формата : 1
Параметр QPel формата : Нет
Параметр GMC формата : Без точки перехода
Параметр матрицы формата : Выборочная
Идентификатор кодека : XVID
Идентификатор кодека/Подсказка : XviD
Продолжительность : 50 м.
Битрейт : 1730 Кбит/сек
Ширина : 720 пикселей
Высота : 544 пикселя
Соотношение сторон : 4:3
Частота кадров : 25,000 кадров/сек
Цветовое пространство : YUV
Субдискретизация насыщенности : 4:2:0
Битовая глубина : 8 бит
Тип развёртки : Прогрессивная
Метод сжатия : С потерями
Бит/(Пиксели*Кадры) : 0.177
Размер потока : 627 Мбайт (90%)
Библиотека кодирования : XviD 1.2.0.dev47 (UTC 2006-11-01)

Аудио
Идентификатор : 1
Формат : AC-3
Формат/Информация : Audio Coding 3
Профиль формата : Dolby Digital
Расширение режима : CM (complete main)
Идентификатор кодека : 2000
Продолжительность : 50 м.
Вид битрейта : Постоянный
Битрейт : 192 Кбит/сек
Каналы : 2 канала
Расположение каналов : Front: L R
Частота : 48,0 КГц
Битовая глубина : 16 бит
Метод сжатия : С потерями
Размер потока : 69,6 Мбайт (10%)
Выравнивание : Разделение по промежуткам
Продолжительность промежутка : 96 мс. (2,40 видеокадра)
Время предзагрузки промежутка : 96 мс.
Язык : Russian


Скриншоты:






Смотреть Online

Детали торрента:
Название:Волшебное рождество у Микки. Новогодние каникулы с Микки, Дональдом и друзьями / Mickey's Magical Christmas. Celebrate Christmas with Mickey, Donald and friends (2001-2004) DVDRip
Дата добавления:05 Дек 2011 23:43:59
Размер:1,37 GB
Раздают:
Качают:1
Форум:Зарубежные Мультфильмы (HD*Rip/LQ, DVDRip, SATRip, VHSRip)

All rights reserved © 2015-2019