TORRENTS45.XYZ

Скачать BBC: Глубина / Deep Blue (2003) HDRip


BBC: Глубина / Deep Blue (2003) HDRip
Автор рипа a-tramp

Русское название: BBC: Глубина
Оригинальное название: Deep Blue
Режиссер / Телекомпания: Энди Биатт, Аластер Фозергилл
Год выпуска: 2003
Жанр: Документальный

Описание:
Уникальный документальный фильм о подводной жизни, ставший невероятно популярным во всём мире. Это чудесное путешествие под водой: от Северного полюса до тропиков, от мелководных коралловых рифов до глубочайших недр океана. Очаровательный мир океанской фауны: опасные акулы, величественные скаты, рыбы всех цветов радуги и захватывающие образы всевозможных форм жизни подводного рая. Этот фильм рассказывает о необычайной жизни в океане: дельфины, киты и акулы, впечатляющая растительность и морские птицы.

Продолжительность: 01:26:41

Перевод: Одноголосый закадровый, профессиональный (О.Курдюков)

Видеокодек: Xvid
Битрейт видео: ~Xvid 25.00fps 2049 Kbps
Размер кадра: 720x400
Качество видео: HDRip (Исх.BDRip.720p)
Аудиокодек: AC3
Битрейт аудио: Dolby AC3 48000Hz stereo 192kbps

MediaImfo:

Формат : AVI
Формат/Информация : Audio Video Interleave
Размер файла : 1,36 Гбайт
Продолжительность : 1 ч. 26 м.
Общий поток : 2251 Кбит/сек
Программа кодирования : VirtualDubMod 1.5.10.3 | www.virtualdub-fr.org || (build 2550/release)
Библиотека кодирования : VirtualDubMod build 2550/release

Видео
Идентификатор : 0
Формат : MPEG-4 Visual
Профиль формата : Advanced Simple@L5
Параметр BVOP формата : 2
Параметр QPel формата : Нет
Параметр GMC формата : Без точки перехода
Параметр матрицы формата : Default (MPEG)
Идентификатор кодека : XVID
Идентификатор кодека/Подсказка : XviD
Продолжительность : 1 ч. 26 м.
Битрейт : 2049 Кбит/сек
Ширина : 720 пикселей
Высота : 400 пикселей
Соотношение сторон : 16:9
Частота кадров : 25,000 кадров/сек
Цветовое пространство : YUV
Субдискретизация насыщенности : 4:2:0
Битовая глубина : 8 бит
Тип развёртки : Прогрессивная
Метод сжатия : С потерями
Бит/(Пиксели*Кадры) : 0.285
Размер потока : 1,24 Гбайт (91%)
Библиотека кодирования : XviD 1.2.1 (UTC 2008-12-04)

Аудио
Идентификатор : 1
Формат : AC-3
Формат/Информация : Audio Coding 3
Расширение режима : CM (complete main)
Идентификатор кодека : 2000
Продолжительность : 1 ч. 26 м.
Вид битрейта : Постоянный
Битрейт : 192 Кбит/сек
Каналы : 2 канала
Расположение каналов : Front: L R
Частота : 48,0 КГц
Битовая глубина : 16 бит
Метод сжатия : С потерями
Размер потока : 119 Мбайт (9%)
Выравнивание : Разделение по промежуткам
Продолжительность промежутка : 40 мс. (1,00 видеокадр)
Время предзагрузки промежутка : 500 мс.
Скриншоты:




Смотреть Online

http://moonwalk.cc/video/3ae5553581049f4a/iframe
Детали торрента:
Название:BBC: Глубина / Deep Blue (2003) HDRip
Дата добавления:03 Дек 2011 11:12:55
Размер:1,36 GB
Раздают:
Качают:0
Форум:BBC

All rights reserved © 2015-2018