TORRENTS45.XYZ

Скачать Снегирь (1983) DVDRip


Снегирь (1983) DVDRip
Русское название: Снегирь
Год выпуска: 1983
Жанр: Детский



Режиссер: Инесса Ковалевская
Роли озвучивали: Галина Иванова, Людмила Гнилова

Описание фильма:
По стихотворению А. Барто.

Продолжительность: 00:09:07
Качество видео: DVDRip

Видеокодек: Xvid
Битрейт видео: ~1661 kb/s
Размер кадра: 640x480
Аудиокодек: MP3, 2 ch
Битрейт аудио: 128 kb/s

MediaInfo

Общее
Полное имя : G:\Мультфильмы\Советские мультфильмы\Снегирь.avi
Формат : AVI
Формат/Информация : Audio Video Interleave
Размер файла : 117 Мбайт
Продолжительность : 9 м. 7 с.
Общий поток : 1799 Кбит/сек
Название фильма : Снегирь.
Режиссёр : agor
Программа кодирования : VirtualDubMod 1.5.10.1 (build 2439/release)
Библиотека кодирования : VirtualDubMod build 2439/release
Формат оригинала/Имя : Cartoon

Видео
Идентификатор : 0
Формат : MPEG-4 Visual
Профиль формата : Advanced Simple@L5
Параметр BVOP формата : 2
Параметр QPel формата : Нет
Параметр GMC формата : Без точки перехода
Параметр матрицы формата : Default (MPEG)
Идентификатор кодека : XVID
Идентификатор кодека/Подсказка : XviD
Продолжительность : 9 м. 7 с.
Битрейт : 1661 Кбит/сек
Ширина : 640 пикс.
Высота : 480 пикс.
Соотношение сторон : 4:3
Частота кадров : 25,000 кадр/сек
Цветовое пространство : YUV
Подвыборка цветности : 4:2:0
Битовая глубина : 8 бит
Тип развёртки : Прогрессивная
Метод сжатия : С потерями
Бит/(Пиксели*Кадры) : 0.216
Размер потока : 108 Мбайт (92%)
Библиотека кодирования : XviD 1.1.2 (UTC 2006-11-01)

Аудио
Идентификатор : 1
Формат : MPEG Audio
Версия формата : Version 1
Профиль формата : Layer 3
Режим : Joint stereo
Расширение режима : MS Stereo
Идентификатор кодека : 55
Идентификатор кодека/Подсказка : MP3
Продолжительность : 9 м. 7 с.
Вид битрейта : Постоянный
Битрейт : 128 Кбит/сек
Канал(ы) : 2 канала(ов)
Частота : 48,0 КГц
Метод сжатия : С потерями
Размер потока : 8,35 Мбайт (7%)
Выравнивание : Соединение по промежуткам
Продолжительность промежутка : 40 мс. (1,00 видеокадр)
Время предзагрузки промежутка : 504 ms
Скриншоты:
Детали торрента:
Название:Снегирь (1983) DVDRip
Дата добавления:20 Сен 2011 20:43:32
Размер:117 MB
Раздают:1
Качают:0
Форум:Отечественные Мультфильмы для детей

All rights reserved © 2015-2019