TORRENTS45.XYZ

Скачать Огненные дороги (1977) SATRip (17 серий из 17)


Огненные дороги (1977) SATRip (17 серий из 17)
Производство: СССР, Узбекфильм
Жанр: Драма

Режиссер: Шухрат Аббасов
Актеры: Ульмас Алиходжаев,Галина Федотова,Юрий Дубровин,Виталий Леонов,Сергей Яковлев,Юрий Гусев,Тамара Шакирова,Данута Столярская.

Описание:
О жизни и деятельности узбекского писателя, композитора, музыканта, просветителя и революционера Хамзы Хаким-заде. Хаким-заде Ниязи - узбекский поэт, философ, драматург и общественный деятель. Хамза - человек, влюбленный в жизнь, все помыслы которого направлены к тому, чтобы сделать свой край еще прекрасней, а жизнь людей богаче и содержательней. Его поэзия - это лирическая мелодия, которая звучит на протяжении всего фильма, как отголосок, выражая душевное состояние Хамзы. Он так же сочинял песни, они звучат как исповедь поэта в минуту тяжелых потрясений. Он борется и страдает, любит и ненавидит, радуется, и горюет. Открывает школы для бедняков, ставит театральные постановки. Вся его жизнь - это борьба против религиозных стереотипов и невежества. Хамза боролся за раскрепощение женщин, и был убит толпой религиозных фанатиков. Фильм потрясает своей «правдой», наблюдая за игрой актеров трудно усомниться, что они лишь просто играют. Фильм задевает многие струны в душе, дает задуматься о многом.


Дата российской премьеры: 5 марта 1979

Продолжительность: 17х ~ 01:11:00
Качество видео: SATRip
Субтитры: Отсутствуют

Видео: Xvid, 688x512, ~1 800 Kbps
Аудио: MP3, 2 ch, 128 Kbps

MediaInfo

General
Complete name : Z:\DVD\Ognennie.dorogi.1977.XviD.SATRip\Ognennie.dorogi.04.serija.iz.17.avi
Format : AVI
Format/Info : Audio Video Interleave
File size : 877 MiB
Duration : 1h 3mn
Overall bit rate : 1 938 Kbps
Director : SATrip by Animat (fenixclub.com)
Writing application : VirtualDubMod 1.5.10.2 (build 2540/release)
Writing library : VirtualDubMod build 2540/release

Video
ID : 0
Format : MPEG-4 Visual
Format profile : Advanced Simple@L5
Format settings, BVOP : Yes
Format settings, QPel : No
Format settings, GMC : No warppoints
Format settings, Matrix : Default (MPEG)
Muxing mode : Packed bitstream
Codec ID : XVID
Codec ID/Hint : XviD
Duration : 1h 3mn
Bit rate : 1 800 Kbps
Width : 688 pixels
Height : 512 pixels
Display aspect ratio : 4:3
Frame rate : 25.000 fps
Color space : YUV
Chroma subsampling : 4:2:0
Bit depth : 8 bits
Scan type : Progressive
Compression mode : Lossy
Bits/(Pixel*Frame) : 0.204
Stream size : 815 MiB (93%)
Writing library : XviD 1.1.2 (UTC 2006-11-01)

Audio
ID : 1
Format : MPEG Audio
Format version : Version 1
Format profile : Layer 3
Mode : Joint stereo
Mode extension : MS Stereo
Codec ID : 55
Codec ID/Hint : MP3
Duration : 1h 3mn
Bit rate mode : Constant
Bit rate : 128 Kbps
Channel(s) : 2 channels
Sampling rate : 48.0 KHz
Compression mode : Lossy
Stream size : 58.0 MiB (7%)
Alignment : Aligned on interleaves
Interleave, duration : 40 ms (1.00 video frame)
Interleave, preload duration : 504 ms
Скриншоты:

Дополнительные Скриншоты:

[/url]
Реставрация 25.04.2018 от: SanKar52

Детали торрента:
Название:Огненные дороги (1977) SATRip (17 серий из 17)
Дата добавления:11 Фев 2019 11:35:00
Размер:16,5 GB
Раздают:4
Качают:1
Форум:Отечественные сериалы

All rights reserved © 2015-2019