TORRENTS45.XYZ

Скачать Учись - Играй! (37 серий) / Mega Minimals (2010) SATRip


Учись - Играй! (37 серий) / Mega Minimals (2010) SATRip
Год выпуска: 2010
Жанр: Обучающий и развивающий мультсериал
Выпущено: Испания

Описание:
Обучающий мультсериал для самых маленьких, вместе с героями малыши будут ходить в детский сад, веселиться, учиться и развиваться!

Режиссер: Джосеф Висиана

Продолжительность: 37 х ~ 00:06:25
Перевод: Дублированный

Видеокодек: Xvid
Битрейт видео: ~ 1563 kb/s
Размер кадра: 704x400
Качество видео: SATRip
Аудиокодек: MP3
Битрейт аудио: 192 kb/s

Инфо-файл

MediaInfo

General
Complete name : D:\Раздачи\Uchis-Igray.2010.XviD.SATRip\Uchis-Igray.10.seriya.2010.XviD.SATRip.avi
Format : AVI
Format/Info : Audio Video Interleave
File size : 78.0 MiB
Duration : 6mn 18s
Overall bit rate : 1 727 Kbps
Writing application : Lavf52.33.0

Video
ID : 0
Format : MPEG-4 Visual
Format profile : Simple@L3
Format settings, BVOP : No
Format settings, QPel : No
Format settings, GMC : No warppoints
Format settings, Matrix : Default (H.263)
Codec ID : XVID
Codec ID/Hint : XviD
Duration : 6mn 18s
Bit rate : 1 522 Kbps
Width : 704 pixels
Height : 400 pixels
Display aspect ratio : 16:9
Frame rate : 25.000 fps
Color space : YUV
Chroma subsampling : 4:2:0
Bit depth : 8 bits
Scan type : Progressive
Compression mode : Lossy
Bits/(Pixel*Frame) : 0.216
Stream size : 68.7 MiB (88%)
Writing library : XviD 1.2.1 (UTC 2008-12-04)

Audio
ID : 1
Format : MPEG Audio
Format version : Version 1
Format profile : Layer 3
Mode : Joint stereo
Mode extension : MS Stereo
Codec ID : 55
Codec ID/Hint : MP3
Duration : 6mn 18s
Bit rate mode : Constant
Bit rate : 192 Kbps
Channel(s) : 2 channels
Sampling rate : 48.0 KHz
Compression mode : Lossy
Stream size : 8.67 MiB (11%)
Alignment : Aligned on interleaves
Interleave, duration : 24 ms (0.60 video frame)
Interleave, preload duration : 24 ms

Список серий

01. Мозаика
02. Цветок
03. Игры с тенью
04. Настоящая картинка
05. Автопортрет
06. Испытание вкуса
07. Пикл не умеет свистеть
08. Камуфляж
09. Рождество
10. Игры в пиратов
11. Дождливый день
12. С Днём Рождения
13. Метод рисования
14. Осенние листья
15. Уголок желаний
16. Икота
17. Фантастический фрукт
18. Бонни не спится
19. Пиклу становится слишком жарко
20. Наведём в классе порядок
21. Замок
22. Младший брат Эрика
23. Флейта Бонни
24. Снежное чудовище
25. Друг в саду
26. Торт для Кесси
27. Поздоровайтесь с Семом
28. Хеллоуин
29. Пугало для пингвина
30. Попугай Пепе
31. Давай потанцуем!
32. Эрик помнит всё
33. Чувства осизания
34. Погодный корабль
35. Волшебное перо
36. Напуганные темнотой
37. Учимся слушать
Скриншоты:


Детали торрента:
Название:Учись - Играй! (37 серий) / Mega Minimals (2010) SATRip
Дата добавления:30 Июн 2011 22:59:45
Размер:2,69 GB
Раздают:
Качают:0
Форум:Зарубежные Мультфильмы для детей

All rights reserved © 2015-2018