TORRENTS45.XYZ

Скачать Livin' Blues - Blue Breeze (1976) [FLAC 2.0 24/192|image (Vinyl-Rip)]<Blues Rock>


Livin' Blues • Blue Breeze (1976) [FLAC 2.0 24/192|image (Vinyl-Rip)]<
Год:: 1976
Жанр:: Blues Rock
Продолжительность:: 00:40:40

Кодек:: FLAC
Битрейт:: Lossless
Тип битрейта:: VBR

Трек лист::
01. Shylina 5:36
02. Back Stage 5:55
03. Midnight Blues 3:19
04. Pisces 1:28
05. Bus 29 3:33
06. Blue Breeze 8:29
07. Pick Up On My Mojo 3:18
08. That Night 5:22
09. Black Jack Dilly 3:41


Ripped by bazar

Диск:: ARIOLA 28430 XOT Holland

MediaInfo:

Код:

Общее
Полное имя                       : C:\Users\Администратор\Downloads\Livin' Blues • Blue Breeze [24bit 192kHz Vinyl]\Livin' Blues - Blue Breeze.flac
Формат                           : FLAC
Формат/Информация                : Free Lossless Audio Codec
Размер файла                     : 1,55 Гигабайт
Продолжительность                : 40мин
Общий поток                      : 5 460 Кбит/сек
Альбом                           : Blue Breeze
Дорожка/Всего                    : 9
Исполнитель                      : Livin' Blues
Жанр                             : Blues Rock
Дата записи                      : 1976
catalog                          : 0000000028430
cue_track01_isrc                 : HLARL760000
cue_track02_isrc                 : HLARL760005
cue_track03_isrc                 : HLARL760010
cue_track04_isrc                 : HLARL760020
cue_track05_isrc                 : HLARL760030
cue_track06_isrc                 : HLARL760040
cue_track07_isrc                 : HLARL760050
cue_track08_isrc                 : HLARL760060
cue_track09_isrc                 : HLARL760070
cuesheet                         : REM GENRE Blues Rock / REM DATE 1976 / CATALOG 0000000028430 / PERFORMER "Livin' Blues" / TITLE "Blue Breeze" / FILE "CDImage.wav" WAVE /   TRACK 01 AUDIO /     TITLE "Shylina" /     ISRC HLARL760000 /     INDEX 01 00:00:00 /   TRACK 02 AUDIO /     TITLE "Back Stage" /     ISRC HLARL760005 /     INDEX 01 05:36:00 /   TRACK 03 AUDIO /     TITLE "Midnight Blues" /     ISRC HLARL760010 /     INDEX 01 11:31:00 /   TRACK 04 AUDIO /     TITLE "Pisces" /     ISRC HLARL760020 /     INDEX 01 14:50:00 /   TRACK 05 AUDIO /     TITLE "Bus 29" /     ISRC HLARL760030 /     INDEX 01 16:18:00 /   TRACK 06 AUDIO /     TITLE "Blue Breeze" /     ISRC HLARL760040 /     INDEX 01 19:51:00 /   TRACK 07 AUDIO /     TITLE "Pick Up On My Mojo" /     ISRC HLARL760050 /     INDEX 01 28:20:00 /   TRACK 08 AUDIO /     TITLE "That Night" /     ISRC HLARL760060 /     INDEX 01 31:38:00 /   TRACK 09 AUDIO /     TITLE "Black Jack Dilly" /     ISRC HLARL760070 /     INDEX 01 37:00:00

Аудио
Формат                           : FLAC
Формат/Информация                : Free Lossless Audio Codec
Продолжительность                : 40мин
Вид битрейта                     : Переменный
Битрейт                          : 5 460 Кбит/сек
Канал(ы)                         : 2 канала(ов)
Частота                          : 192 КГц
Разрешение                       : 24 бит
Размер потока                    : 1,55 Гигабайт (100%)
Библиотека кодирования           : libFLAC 1.2.1 (UTC 2007-09-17)

Technical Info:

Код класса состояния винила: VG
Устройство воспроизведения: Тechnics SL-1200MK5
Предварительный усилитель: PS audio GCPH
АЦП: LynxTwoB
Программа-оцифровщик: WaveLab 6
Детали торрента:
Название:Livin' Blues - Blue Breeze (1976) [FLAC 2.0 24/192|image (Vinyl-Rip)]<Blues Rock>
Дата добавления:25 Июн 2011 18:26:03
Размер:1,58 GB
Раздают:
Качают:0
Форум:Vinyl-Rip и Hand-Made

All rights reserved © 2015-2018