TORRENTS45.XYZ

Скачать Не хочу в школу. Сборник мультфильмов (1965-1985) DVD5


Не хочу в школу. Сборник мультфильмов (1965-1985) DVD5
Русское название: Не хочу в школу. Сборник мультфильмов
Год выпуска: 1965-1985
Выпущено: Союзмультфильм
Жанр: Детский, рисованая анимация
Язык: Русский

Описание:
Сборник мультфильмов о "нелегкой" жизни двоечников

Список мультфильмов:
"Вовка в тридевятом царстве"
"В стране невыученных уроков"
"Проделкин в школе"
"На задней парте. 4 серии"

Режиссер: Борис Степанцев, Юрий Прытков, Анатолий Петров, Геннадий Сокольский, Валерий Угаров
Персонажи: Вовка, Витя Перестукин, Проделкин, Оля Знайкина и Боря Лейкин

Продолжительность: 01:27:30
Субтитры: Нет
Дополнительный материал: Отсутствует

Видеокодек: MPEG-2
Битрейт видео: ~5524 Кбит/сек
Размер кадра: PAL 4:3 (720x576) VBR
Качество видео: DVD5
Аудиокодек: AC3 2.0
Битрейт аудио: Audio #1: AC3, 2/0ch, 224Kbps, Delay -80 mSec Russian

Подробное описание

Вовка в тридевятом царстве

"Вовка в тридевятом царстве" 00:19:11, 1965 г., Реж. Борис Степанцев
Фильм о том, как школьник Вовка мечтал о сказочной жизни, ведь в сказках все делается по щучьему веленью. С помощью советов из справочника "Сделай сам" библиотекарша создает нарисованного мальчика — копию Вовки — и отправляет его в Тридевятое царство, существующее в книге сказок.

В стране невыученных уроков

"В стране невыученных уроков" 00:19:16, 1969 г., Реж. Юрий Прытков
Мультипликационный фильм по мотивам одноименной сказки Лии Гераскиной о скверном ученике и о том, как маленький лодырь попадает в фантастическую страну, где сталкивается с причудливыми образами собственных невыученных уроков. На пути ему попадаются полтора землекопа из неверно решенной арифметической задачи и всевозможные нелепицы, порожденные его же собственными ошибками.

Проделкин в школе

"Проделкин в школе" 00:09:54, 1974 г., Реж. Геннадий Сокольский, Валерий Угаров, Анатолий Петров
Рассказ о трех эпизодах из жизни школьника Проделкина и высмеивающий непоседливых и легкомысленных школьников. Эпизоды: "Как Проделкин читал стенгазету", "Как Проделкин боролся за успеваемость", "Как Проделкин исправился".

На задней парте

"На задней парте. 4 серии" 00:09:27; 00:09:49; 00:09:18; 00:10:12, 1978-1985 г.г., Реж. Валерий Угаров
Комические истории о соседях по парте — отличнице Оле Знайкиной и озорнике и двоечнике Боре Лейкине.

MediaInfo

Общее
Полное имя : D:\оооооооооооооооо\Ne.hochu.v.shkolu.Sbornik.multfilmov.1965-1985.DVD-5\VIDEO_TS\VTS_03_1.VOB
Формат : MPEG-PS
Размер файла : 800 Мбайт
Продолжительность : 19 м.
Общий поток : 5802 Кбит/сек

Видео
Идентификатор : 224 (0xE0)
Формат : MPEG Video
Версия формата : Version 2
Профиль формата : Main@Main
Параметр BVOP формата : Да
Параметр матрицы формата : По умолчанию
Параметры GOP формата : M=3, N=15
Продолжительность : 19 м.
Вид битрейта : Переменный
Битрейт : 5524 Кбит/сек
Ширина : 720 пикс.
Высота : 576 пикс.
Соотношение сторон : 4:3
Частота кадров : 25,000 кадр/сек
Стандарт вещания : PAL
Цветовое пространство : YUV
Подвыборка цветности : 4:2:0
Битовая глубина : 8 бит
Тип развёртки : Чересстрочная
Порядок развёртки : Верхнее поле первое
Метод сжатия : С потерями
Бит/(Пиксели*Кадры) : 0.533
Размер потока : 753 Мбайт (94%)

Аудио
Идентификатор : 189 (0xBD)-128 (0x80)
Формат : AC-3
Формат/Информация : Audio Coding 3
Расширение режима : CM (complete main)
Режим смешивания : DVD-Video
Продолжительность : 19 м.
Вид битрейта : Постоянный
Битрейт : 224 Кбит/сек
Канал(ы) : 2 канала(ов)
Расположение каналов : Front: L R
Частота : 48,0 КГц
Битовая глубина : 16 бит
Метод сжатия : С потерями
Задержка видео : -80 мс.
Размер потока : 30,9 Мбайт (4%)

Меню

Обложка



Скриншоты:



Детали торрента:
Название:Не хочу в школу. Сборник мультфильмов (1965-1985) DVD5
Дата добавления:01 Июн 2011 19:07:17
Размер:3,56 GB
Раздают:
Качают:0
Форум:Отечественные Мультфильмы (HD, UHD, UHD-LQ, DVD, Сборники)

All rights reserved © 2015-2018