TORRENTS45.XYZ

Скачать Михаил Задорнов. "Сборник рассказов" (эфир 7.05.2011) SATRip


Михаил Задорнов. "Сборник рассказов" (2010) SATRip
Русское название: Михаил Задорнов. "Сборник рассказов"
Телекомпания: РЕН
Год выпуска: 2011
Жанр: Юмор

Дата выхода: 07/05/2011

Описание:
В программе собраны сатирические, юмористические, публицистические рассказы разных лет известного писателя-сатирика Михаила Задорного. Многие из них актуальны и по сей день.

Продолжительность: 01:24:05

Видеокодек: DivX 5
Битрейт видео: ~1250 kb/s
Размер кадра: 576 x 432
Качество видео: SATRip
Аудиокодек: MP3
Битрейт аудио: 128 kb/s CBR

Релиз By vikkar

MediaInfo

Общее
Полное имя : D:\Михаил Задорнов. Сборник рассказов.avi
Формат : AVI
Формат/Информация : Audio Video Interleave
Размер файла : 835 Мбайт
Продолжительность : 1 ч. 24 м.
Общий поток : 1388 Кбит/сек
Библиотека кодирования : VirtualDub build 30009/release

Видео
Идентификатор : 0
Формат : MPEG-4 Visual
Параметр BVOP формата : 1
Параметр QPel формата : Нет
Параметр GMC формата : Без точки перехода
Параметр матрицы формата : Default (H.263)
Режим смешивания : Сжатый битовый поток
Идентификатор кодека : DX50
Идентификатор кодека/Подсказка : DivX 5
Продолжительность : 1 ч. 24 м.
Битрейт : 1250 Кбит/сек
Ширина : 576 пикс.
Высота : 432 пикс.
Соотношение сторон : 4:3
Частота кадров : 25,000 кадр/сек
Цветовое пространство : YUV
Подвыборка цветности : 4:2:0
Битовая глубина : 8 бит
Тип развёртки : Прогрессивная
Метод сжатия : С потерями
Бит/(Пиксели*Кадры) : 0.201
Размер потока : 752 Мбайт (90%)
Библиотека кодирования : DivX 6.8.5 (UTC 2009-08-20)

Аудио
Идентификатор : 1
Формат : MPEG Audio
Версия формата : Version 1
Профиль формата : Layer 3
Режим : Joint stereo
Расширение режима : MS Stereo
Идентификатор кодека : 55
Идентификатор кодека/Подсказка : MP3
Продолжительность : 1 ч. 24 м.
Вид битрейта : Постоянный
Битрейт : 128 Кбит/сек
Каналы : 2 канала
Частота : 48,0 КГц
Метод сжатия : С потерями
Размер потока : 77,0 Мбайт (9%)
Выравнивание : Разделение по промежуткам
Продолжительность промежутка : 40 мс. (1,00 видеокадр)
Время предзагрузки промежутка : 500 ms

Читать

Просьба к уважаемым пользователям нашего трекера: перед написанием комментария, перечитайте текущие правила комментирования, чтобы не было недоразумений. Если понравилось - не откажусь от
Скриншоты:



Детали торрента:
Название:Михаил Задорнов. "Сборник рассказов" (эфир 7.05.2011) SATRip
Дата добавления:13 Май 2011 20:03:55
Размер:835 MB
Раздают:1
Качают:0
Форум:Сатирики

All rights reserved © 2015-2019