TORRENTS45.XYZ

Скачать Шофёр поневоле (1958) DVDRip


Шофёр поневоле (1958) DVDRip
Производство: СССР, Ленфильм
Жанр: Комедия

Режиссер: Надежда Кошеверова
Актеры: Антоний Ходурский, Мария Миронова, Сергей Филиппов, Лилия Гриценко, Ирина Зарубина, Вера Карпова, Юрий Соловьёв, Павел Суханов, Пётр Алейников, Анатолий Абрамов

Описание:
Начальник главка Пастухов отправляется из Москвы в отпуск на собственном автомобиле, но не умеет хорошо водить и едет с собственным шофёром — старым холостяком Саврасовым, мечтающим жениться на медсестре. Приступ радикулита, внезапно поразивший водителя в пути, становится началом приключений товарища Пастухова, которому приходится лично столкнуться с последствиями бюрократизма в повседневной жизни простых советских людей…


Возраст: 12+ (зрителям, достигшим 12 лет)

Продолжительность: 01:27:38
Качество видео: DVDRip

Видео: DivX, 672x496 (1.35:1), ~2031 kbps, 0.24 bit/pixel
Аудио: AC3, 2 ch, 192 kbps

Mediainfo:

Общее
Полное имя : C:\chofior_ponevole.avi
Формат : AVI
Формат/Информация : Audio Video Interleave
Размер файла : 1,37 Гбайт
Продолжительность : 1 ч. 27 м.
Общий поток : 2233 Кбит/сек
Программа кодирования : VirtualDubModRus 1.5.10.2 (build 2542/release)
Библиотека кодирования : VirtualDubMod build 2542/release

Видео
Идентификатор : 0
Формат : MPEG-4 Visual
Параметр BVOP формата : 1
Параметр QPel формата : Нет
Параметр GMC формата : Без точки перехода
Параметр матрицы формата : Default (H.263)
Режим смешивания : Сжатый битовый поток
Идентификатор кодека : DX50
Идентификатор кодека/Подсказка : DivX 5
Продолжительность : 1 ч. 27 м.
Битрейт : 2032 Кбит/сек
Ширина : 672 пикселя
Высота : 496 пикселей
Соотношение сторон : 4:3
Частота кадров : 25,000 кадров/сек
Цветовое пространство : YUV
Субдискретизация насыщенности : 4:2:0
Битовая глубина : 8 бит
Тип развёртки : Прогрессивная
Метод сжатия : С потерями
Бит/(Пиксели*Кадры) : 0.244
Размер потока : 1,24 Гбайт (91%)
Библиотека кодирования : DivX 6.8.2 (UTC 2008-05-17)

Аудио
Идентификатор : 1
Формат : AC-3
Формат/Информация : Audio Coding 3
Расширение режима : CM (complete main)
Идентификатор кодека : 2000
Продолжительность : 1 ч. 27 м.
Вид битрейта : Постоянный
Битрейт : 192 Кбит/сек
Каналы : 2 канала
Расположение каналов : Front: L R
Частота : 48,0 КГц
Битовая глубина : 16 бит
Метод сжатия : С потерями
Размер потока : 120 Мбайт (9%)
Выравнивание : Разделение по промежуткам
Продолжительность промежутка : 40 мс. (1,00 видеокадр)
Время предзагрузки промежутка : 500 мс.
Скриншоты:


Все одноименные релизы в Клубе
Детали торрента:
Название:Шофёр поневоле (1958) DVDRip
Дата добавления:17 Апр 2011 22:32:10
Размер:1,37 GB
Раздают:
Качают:0
Форум:Отечественная Классика (HD*Rip/LQ, DVDRip, SATRip, VHSRip)

All rights reserved © 2015-2018