TORRENTS45.XYZ

Скачать Моя правда. Владислав Галкин. Ошибка ценою в жизнь (2011) SATRip


Моя правда. Владислав Галкин.
Ошибка ценою в жизнь (2011) SATRip

Название: Моя правда. Владислав Галкин. Ошибка ценою в жизнь
Страна: Украина
Телекомпания: "ММЦ" СТБ
Год выпуска: 2011
Жанр: Документальный, биография
Язык: Русский, закадровый украинский

Описание:
Жизнь героев программы похожа на яркую вспышку звезды. Ими восторгаются, их боготворят, им подражают и копируют. Они стали кумирами миллионов поклонников в разных странах и остаются ими сейчас, несмотря на быстротечность времени и круговорот перемен. Программа «Моя правда» разрушает стереотипы и показывает жизнь героя такой, какой она есть на самом деле. В каждом выпуске зритель по-новому откроет для себя очередную звезду – не только идола, но и человека; узнает уникальные подробности ее жизни и творчества. Уникальные видеохроники и эксклюзивные интервью, мнения друзей и знакомых, секреты успеха и факты из настоящей личной жизни звезд откроют зрителю, каковы герои на самом деле.

Продолжительность: 00:47:32

Видеокодек: DivX
Битрейт видео: ~1128 Кбит/с
Размер кадра: 640x480
Качество видео: SATRip
Аудиокодек: MP3
Битрейт аудио: 192 Кбит/с

Отчет MediaInfo:

F:\\Moya.pravda.Vladislav.Galkin.(2011.03.17).2011.DivX.SATRip.avi
General
Complete name : F:\\Moya.pravda.Vladislav.Galkin.(2011.03.17).2011.DivX.SATRip.avi
Format : AVI
Format/Info : Audio Video Interleave
File size : 455 MiB
Duration : 47mn 32s
Overall bit rate : 1 337 Kbps
Video #0
ID : 0
Format : MPEG-4 Visual
Format profile : Simple@L1
Format settings, BVOP : No
Format settings, QPel : No
Format settings, GMC : No warppoints
Format settings, Matrix : Default (H.263)
Codec ID : DIVX
Codec ID/Info : Project Mayo
Codec ID/Hint : DivX 4
Duration : 47mn 32s
Bit rate : 1 128 Kbps
Width : 640 pixels
Height : 480 pixels
Display aspect ratio : 4:3
Frame rate : 23.976 fps
Color space : YUV
Chroma subsampling : 4:2:0
Bit depth : 8 bits
Scan type : Progressive
Bits/(Pixel*Frame) : 0.153
Stream size : 384 MiB (84%)
Writing library : Lavc52.22.3
Audio #1
ID : 1
Format : MPEG Audio
Format version : Version 1
Format profile : Layer 3
Mode : Joint stereo
Mode extension : MS Stereo
Codec ID : 55
Codec ID/Hint : MP3
Duration : 47mn 32s
Bit rate mode : Constant
Bit rate : 192 Kbps
Channel(s) : 2 channels
Sampling rate : 44.1 KHz
Video delay : 4ms
Stream size : 65.3 MiB (14%)
Alignment : Aligned on interleaves
Interleave, duration : 26 ms (0.63 video frame)
Скриншоты:


Детали торрента:
Название:Моя правда. Владислав Галкин. Ошибка ценою в жизнь (2011) SATRip
Дата добавления:20 Мар 2011 20:06:22
Размер:455 MB
Раздают:
Качают:0
Форум:Архив Документалистики и TV

All rights reserved © 2015-2019