TORRENTS45.XYZ

Скачать Buster Williams - Griot Liberte (2004) [FLAC|Lossless]<Jazz>


Buster Williams - Griot Liberte (2004)
Год: 2004
Жанр: Jazz
Продолжительность: 00:55:33

Кодек: FLAC
Битрейт: Lossless

Трек лист:
1. Nomads (08:38)
2. Related To One (05:45)
3. The Triumphant Dance Of The Butterfly (07:48)
4. The Wind Of An Immortal Soul (09:28)
5. Every Time We Say Goodbye (06:29)
6. Joined At The Hip (08:39)
7. Concierto De Aranjuez (05:15)
8. After The Ninth Wave (03;00)

Дополнительная информация:

Personnel:
Buster Williams (контрабас);
George Colligan (рояль);
Stefon Harris (вибрафон);
Lenny White (ударные).

Отчёт ЕАС:

Код:

Exact Audio Copy V0.99 prebeta 4 from 23. January 2008

EAC extraction logfile from 18. May 2009, 19:46

Buster Williams / Griot Liberte

Used drive  : PLEXTOR DVDR   PX-800A   Adapter: 1  ID: 1

Read mode               : Secure
Utilize accurate stream : Yes
Defeat audio cache      : Yes
Make use of C2 pointers : No

Read offset correction                      : 48
Overread into Lead-In and Lead-Out          : No
Fill up missing offset samples with silence : Yes
Delete leading and trailing silent blocks   : No
Null samples used in CRC calculations       : Yes
Used interface                              : Installed external ASPI interface

Used output format : Internal WAV Routines
Sample format      : 44.100 Hz; 16 Bit; Stereo

TOC of the extracted CD

     Track |   Start  |  Length  | Start sector | End sector
    ---------------------------------------------------------
        1  |  0:00.00 |  8:42.67 |         0    |    39216
        2  |  8:42.67 |  5:47.59 |     39217    |    65300
        3  | 14:30.51 |  7:51.24 |     65301    |   100649
        4  | 22:22.00 |  9:22.64 |    100650    |   142863
        5  | 31:44.64 |  6:35.74 |    142864    |   172562
        6  | 38:20.63 |  8:42.55 |    172563    |   211767
        7  | 47:03.43 |  5:24.67 |    211768    |   236134
        8  | 52:28.35 |  3:04.53 |    236135    |   249987

Range status and errors

Selected range

     Filename D:\Bass Images\Buster Williams\Buster Williams - Griot Liberte\Griot Liberte.wav

     Peak level 97.9 %
     Range quality 100.0 %
     Copy CRC C09C8DE3
     Copy OK

No errors occurred

AccurateRip summary

Track  1  accurately ripped (confidence 1)  [C056D777]
Track  2  accurately ripped (confidence 1)  [93C8B8C8]
Track  3  accurately ripped (confidence 1)  [0B9B9BC5]
Track  4  accurately ripped (confidence 1)  [85E32B17]
Track  5  accurately ripped (confidence 1)  [46F13F09]
Track  6  accurately ripped (confidence 1)  [87161AA4]
Track  7  accurately ripped (confidence 1)  [F547D2B9]
Track  8  accurately ripped (confidence 1)  [F494CE1C]

All tracks accurately ripped

End of status report

Отчёт auCDtect Task manager:

Код:

-----------------------

DON'T MODIFY THIS FILE

-----------------------

PERFORMER: auCDtect Task Manager, ver. 1.5.1RC4 build 1.5.1.5
Copyright (c) 2008-2010 y-soft. All rights reserved
http://y-soft.org

ANALYZER: auCDtect: CD records authenticity detector, version 0.8.2
Copyright (c) 2004 Oleg Berngardt. All rights reserved.
Copyright (c) 2004 Alexander Djourik. All rights reserved.

FILE: Griot Liberte.flac
  Size: 287889381 Hash: 9DD48C02305FB1739AB17304D96454F8 Accuracy: -m0
  Conclusion: CDDA 100%
  Signature: 6DBC60D498C547F8EC9EF4D6AFE822BD8C5435F4
Детали торрента:
Название:Buster Williams - Griot Liberte (2004) [FLAC|Lossless]<Jazz>
Дата добавления:17 Мар 2011 20:45:32
Размер:280 MB
Раздают:1
Качают:0
Форум:Jazz (Lossless)

All rights reserved © 2015-2018