TORRENTS45.XYZ

Скачать Янка Дягилева - Только лучшие песни (2004) [FLAC|Lossless]<Rock, Punk-Rock>


Янка Дягилева - Только лучшие песни (2004)
Год: 2004
Жанр: Rock, Punk-Rock
Продолжительность: 01:42:03

Кодек: FLAC
Битрейт: Lossless
Тип битрейта: VBR

MP3 320 kbps

Дополнительная информация:

+ ковры

CD1

Трек лист:
01. Нюркина песня [03:46]
02. Крестом и нулем [04:51]
03. Декорации [02:46]
04. Домой! [05:28]
05. На черный день [02:49]
06. Печаль моя светла [00:57]
07. Чужой дом [03:48]
08. Рижская [01:39]
09. Столетний дождь [02:44]
10. Я стервенею [03:02]
11. Ангедония [06:58]
12. На дороге пятак [04:15]
13. Особый резон [02:46]
14. Продано [04:04]

Продолжительность: 00:49:52

Отчёт ЕАС:

Код:
Exact Audio Copy V0.99 prebeta 5 from 4. May 2009

Отчёт EAC об извлечении, выполненном 22. июня 2010, 11:31

Янка / Русский рок. Только лучшие песни. CD 1

Дисковод: Optiarc DVD RW AD-5240S   Adapter: 3  ID: 0

Режим чтения                 : Достоверность
Использование точного потока : Да
Отключение кэша аудио        : Да
Использование указателей C2  : Нет

Коррекция смещения при чтении                     : 48
Способность читать области Lead-in и Lead-out     : Нет
Заполнение пропущенных сэмплов тишиной            : Да
Удаление блоков с тишиной в начале и конце        : Нет
При вычислениях CRC использовались нулевые сэмплы : Да
Интерфейс                                         : Встроенный Win32-интерфейс для Win NT/2000

Выходной формат : Внутренние WAV-операции
Формат сэмплов  : 44.100 Гц; 16 бит; стерео

TOC извлечённого CD

     Трек |   Старт  | Длительность | Начальный сектор | Конечный сектор
    ---------------------------------------------------------------------
       1  |  0:00.00 |    3:45.40   |           0      |      16914
       2  |  3:45.40 |    4:51.27   |       16915      |      38766
       3  |  8:36.67 |    2:46.14   |       38767      |      51230
       4  | 11:23.06 |    5:28.11   |       51231      |      75841
       5  | 16:51.17 |    2:48.39   |       75842      |      88480
       6  | 19:39.56 |    0:56.39   |       88481      |      92719
       7  | 20:36.20 |    3:47.74   |       92720      |     109818
       8  | 24:24.19 |    1:38.40   |      109819      |     117208
       9  | 26:02.59 |    2:44.08   |      117209      |     129516
      10  | 28:46.67 |    3:02.24   |      129517      |     143190
      11  | 31:49.16 |    6:57.46   |      143191      |     174511
      12  | 38:46.62 |    4:15.00   |      174512      |     193636
      13  | 43:01.62 |    2:45.55   |      193637      |     206066
      14  | 45:47.42 |    4:04.36   |      206067      |     224402

Характеристики диапазона извлечения и сообщения об ошибках

Выбранный диапазон

     Имя файла F:\Downloads\Янка - Русский рок. Только лучшие песни. CD 1.wav

     Пиковый уровень 100.0 %
     Качество диапазона 100.0 %
     CRC копии E9DC86C2
     Копирование... OK

Ошибок не произошло

AccurateRip: сводка

Трек  1  нет в базе данных
Трек  2  нет в базе данных
Трек  3  нет в базе данных
Трек  4  нет в базе данных
Трек  5  нет в базе данных
Трек  6  нет в базе данных
Трек  7  нет в базе данных
Трек  8  нет в базе данных
Трек  9  нет в базе данных
Трек 10  нет в базе данных
Трек 11  нет в базе данных
Трек 12  нет в базе данных
Трек 13  нет в базе данных
Трек 14  нет в базе данных

Ни одного трека нет в базе AccurateRip

Конец отчёта

Отчёт Audiochecker:

Код:
AUDIOCHECKER v2.0 beta (build 457) - by Dester - opdester@freemail.hu
~~~~~~~~~~~~~~~~~~~~~~~~~~~~~~~~~~
-=== DO NOT EDIT THIS FILE! ===-

Path: ...\CD1

1 -=- Янка - Русский рок. Только лучшие песни. CD 1.flac -=- CDDA (99%)

181796932

CD2

Трек лист:
01. Песенка про паучков [02:39]
02. Мы по колено [02:35]
03. Гори, гори ясно! [02:36]
04. Про чертиков [04:37]
05. По трамвайным рельсам [02:35]
06. Особый резон [03:20]
07. Reggae [01:49]
08. Стаи летят [02:27]
09. Пол-королевства [01:43]
10. От большого ума [04:59]
11. Придет вода [09:13]
12. Деклассированным элементам [04:14]
13. Медведь выходит [01:20]
14. Выше ноги от земли [04:42]
15. Берегись! [03:22]

Продолжительность: 00:52:11

Отчёт ЕАС:

Код:
Exact Audio Copy V0.99 prebeta 5 from 4. May 2009

Отчёт EAC об извлечении, выполненном 22. июня 2010, 11:16

Янка / Русский рок. Только лучшие песни. CD 2

Дисковод: Optiarc DVD RW AD-5240S   Adapter: 3  ID: 0

Режим чтения                 : Достоверность
Использование точного потока : Да
Отключение кэша аудио        : Да
Использование указателей C2  : Нет

Коррекция смещения при чтении                     : 48
Способность читать области Lead-in и Lead-out     : Нет
Заполнение пропущенных сэмплов тишиной            : Да
Удаление блоков с тишиной в начале и конце        : Нет
При вычислениях CRC использовались нулевые сэмплы : Да
Интерфейс                                         : Встроенный Win32-интерфейс для Win NT/2000

Выходной формат : Внутренние WAV-операции
Формат сэмплов  : 44.100 Гц; 16 бит; стерео

TOC извлечённого CD

     Трек |   Старт  | Длительность | Начальный сектор | Конечный сектор
    ---------------------------------------------------------------------
       1  |  0:00.00 |    2:39.37   |           0      |      11961
       2  |  2:39.37 |    2:34.61   |       11962      |      23572
       3  |  5:14.23 |    2:35.44   |       23573      |      35241
       4  |  7:49.67 |    4:37.05   |       35242      |      56021
       5  | 12:26.72 |    2:35.25   |       56022      |      67671
       6  | 15:02.22 |    3:19.64   |       67672      |      82660
       7  | 18:22.11 |    1:48.61   |       82661      |      90821
       8  | 20:10.72 |    2:26.71   |       90822      |     101842
       9  | 22:37.68 |    1:42.69   |      101843      |     109561
      10  | 24:20.62 |    4:59.00   |      109562      |     131986
      11  | 29:19.62 |    9:12.38   |      131987      |     173424
      12  | 38:32.25 |    4:14.06   |      173425      |     192480
      13  | 42:46.31 |    1:20.37   |      192481      |     198517
      14  | 44:06.68 |    4:42.20   |      198518      |     219687
      15  | 48:49.13 |    3:21.50   |      219688      |     234812

Характеристики диапазона извлечения и сообщения об ошибках

Выбранный диапазон

     Имя файла F:\Downloads\Янка - Русский рок. Только лучшие песни. CD 2.wav

     Пиковый уровень 100.0 %
     Качество диапазона 100.0 %
     CRC копии 51B06829
     Копирование... OK

Ошибок не произошло

AccurateRip: сводка

Трек  1  нет в базе данных
Трек  2  нет в базе данных
Трек  3  нет в базе данных
Трек  4  нет в базе данных
Трек  5  нет в базе данных
Трек  6  нет в базе данных
Трек  7  нет в базе данных
Трек  8  нет в базе данных
Трек  9  нет в базе данных
Трек 10  нет в базе данных
Трек 11  нет в базе данных
Трек 12  нет в базе данных
Трек 13  нет в базе данных
Трек 14  нет в базе данных
Трек 15  нет в базе данных

Ни одного трека нет в базе AccurateRip

Конец отчёта

Отчёт Audiochecker:

Код:
AUDIOCHECKER v2.0 beta (build 457) - by Dester - opdester@freemail.hu
~~~~~~~~~~~~~~~~~~~~~~~~~~~~~~~~~~
-=== DO NOT EDIT THIS FILE! ===-

Path: ...\CD2

1 -=- Янка - Русский рок. Только лучшие песни. CD 2.flac -=- CDDA (100%)

224251300
Детали торрента:
Название:Янка Дягилева - Только лучшие песни (2004) [FLAC|Lossless]<Rock, Punk-Rock>
Дата добавления:15 Дек 2010 23:16:28
Размер:656 MB
Раздают:
Качают:1
Форум:Русский Рок (Lossless)

All rights reserved © 2015-2018