TORRENTS45.XYZ

Скачать Тайм-Аут - Капуста (2010) [APE|Lossless]<Rock>


Тайм-Аут - Капуста (2010)
Год: 2010
Жанр: Rock
Продолжительность: 00:48:49

Кодек: APE
Битрейт: Lossless

Трек лист:
01 - -
02 - Капуста
03 - Ночь-Луна
04 - Танцор диско
05 - По барабану
06 - Я буду там
07 - Рок играть - не трусами махать
08 - Люди как люди
09 - Раз, 2, 3
10 - Мороженое
11 - Никто меня не любит
12 - Гуттаперчевая
13 - Жертвы научной фантастики
14 - Весна

Состав:

Александр Минаев (Акакий Назарыч Зирнбирнштейн) — бас-гитара, перкуссия, вокал, саунд-продюсер, продюсер;
Сергей Степанов (Гагей Гагеич Сикорский) — электрогитара, акустическая гитара, вокал;
Роман Мухачев (Терминатор Куклачев) — клавишные, аккордеон, вокал;
Андрей Родин (Архимандрей Кислородин) — ударные, перкуссия;
Сергей Педченко (Чидазл) — пульт, камера, саунд-продюсер.

Дополнительная информация:

Долгожданный альбом, выпуска которого ждали почти десять лет, вместил в себя целую эпоху деятельности Ансамбля. За период между выходом пластинки «Хорошая» и публикацией «Капусты» коллектив покинул С. Степанов, появилось большое количество нового материала, часть которого не прошла проверку временем, коллектив сыграл ряд акустических концертов и вернулся к «электрике», ушел Павел Молчанов, но состоялось возвращение Сергея Степанова и Романа Мухачева.

Группе пришлось много репетировать для продолжения концертной деятельности, а практически готовый материал грядущего альбома переписывать заново, и весной 2010 года началась активная работа на репетиционной базе и в студии. Презентация «Капусты» состоялась 27 ноября на праздновании Мотологического Нового года в клубе «Точка».

Смена состава и трудности с поиском издателя не помешали Ансамблю Тайм-Аут добиться плотного, сочного и весьма интересного звука и самостоятельно выпустить альбом, состоящий из 13,1 треков, семь из которых исполнялись на концертах в течение долгого времени, два представляют собой новые аранжировки изданных ранее песен, а еще четыре являются абсолютно новыми.

Отчёт ЕАС:

Код:
Exact Audio Copy V0.99 prebeta 4 from 23. January 2008

Отчёт EAC об извлечении, выполненном 4. декабря 2010, 17:41

Тайм Аут / Капуста

Дисковод: Optiarc DVD RW AD-7173A   Adapter: 5  ID: 0

Режим чтения                 : Достоверность
Использование точного потока : Да
Отключение кэша аудио        : Да
Использование указателей C2  : Нет

Коррекция смещения при чтении                     : 48
Способность читать области Lead-in и Lead-out     : Нет
Заполнение пропущенных сэмплов тишиной            : Да
Удаление блоков с тишиной в начале и конце        : Нет
При вычислениях CRC использовались нулевые сэмплы : Да
Интерфейс                                         : Установленный внешний ASPI-интерфейс

Выходной формат : Внутренние WAV-операции
Формат сэмплов  : 44.100 Гц; 16 бит; стерео

TOC извлечённого CD

     Трек |   Старт  | Длительность | Начальный сектор | Конечный сектор
    ---------------------------------------------------------------------
       1  |  0:00.00 |    0:04.00   |           0      |        299
       2  |  0:04.00 |    3:25.17   |         300      |      15691
       3  |  3:29.17 |    4:50.47   |       15692      |      37488
       4  |  8:19.64 |    3:49.12   |       37489      |      54675
       5  | 12:09.01 |    2:53.31   |       54676      |      67681
       6  | 15:02.32 |    4:10.66   |       67682      |      86497
       7  | 19:13.23 |    3:34.49   |       86498      |     102596
       8  | 22:47.72 |    2:58.33   |      102597      |     115979
       9  | 25:46.30 |    3:34.00   |      115980      |     132029
      10  | 29:20.30 |    3:42.00   |      132030      |     148679
      11  | 33:02.30 |    3:50.40   |      148680      |     165969
      12  | 36:52.70 |    4:08.36   |      165970      |     184605
      13  | 41:01.31 |    4:21.12   |      184606      |     204192
      14  | 45:22.43 |    3:26.37   |      204193      |     219679

Характеристики диапазона извлечения и сообщения об ошибках

Выбранный диапазон

     Имя файла C:\Music\та\Тайм Аут - Капуста.wav

     Пиковый уровень 100.0 %
     Качество диапазона 100.0 %
     CRC теста B20AEC21
     CRC копии B20AEC21
     Копирование... OK

Ошибок не произошло

Конец отчёта

Отчёт auCDtect:

Код:
-----------------------

DON'T MODIFY THIS FILE

-----------------------

PERFORMER: auCDtect Task Manager, ver. 1.5.1RC4 build 1.5.1.5
Copyright (c) 2008-2010 y-soft. All rights reserved
http://y-soft.org

ANALYZER: auCDtect: CD records authenticity detector, version 0.8.2
Copyright (c) 2004 Oleg Berngardt. All rights reserved.
Copyright (c) 2004 Alexander Djourik. All rights reserved.

FILE: Тайм Аут - Капуста.ape
  Size: 353913316 Hash: 2FC937A027F291FE914A2A61D674F2B5 Accuracy: -m0
  Conclusion: CDDA 100%
  Signature: 0BE572E1CB501AF01EE22CDCB2ECCE1AF3E18CFB
Детали торрента:
Название:Тайм-Аут - Капуста (2010) [APE|Lossless]<Rock>
Дата добавления:13 Дек 2010 22:15:39
Размер:380 MB
Раздают:
Качают:0
Форум:Русский Рок (Lossless)

All rights reserved © 2015-2018