TORRENTS45.XYZ

Скачать Mr Credo - 2 Альбома (1998/2002) [APE/FLAC|Lossless]<Pop>


Mr Credo - 2 Альбома (1998/2002)
Год: 1998/2002
Жанр: Pop
Продолжительность: 01:55:50

Кодек: APE/FLAC
Битрейт: Lossless
Тип битрейта: CBR


(1998) Золотое Время :



Кодек: Ape
Битрейт: Lossless
Тип битрейта: CBR
Продолжительность: 01:04:07


Треклист:

01. Intro (03:51)
02. Cosa Nostra (04:18)
03. Карлос Кастанеда (04:25)
04. Огонь, Вода и Медные Трубы (03:26)
05. Долгая Дорога в Дюнах (04:19)
06. Золотое Время (05:49)
07. Держи Бакшиш (05:48)
08. Оп, Стоп! (04:42)
09. Море Острых Ощущений (05:01)
10. Лас-Вегас (04:39)
11. Каньон. Зигзаг. Рилакс. Юла. (04:41)
12. Атакующий Прогресс (04:37)
13. Jazz (03:43)
14. Воздушный Шар (04:41)
15. Доктор Айболит (05:21)


Отчёт Exact Audio Copy:

Exact Audio Copy V0.99 prebeta 4 from 23. January 2008

Отчёт EAC об извлечении, выполненном 12. сентября 2008, 16:37

Mr.Credo / Золотое Время

Дисковод: _NEC DVD_RW ND-3520AW Adapter: 3 ID: 0

Режим чтения : Достоверность
Использование точного потока : Да
Отключение кэша аудио : Да
Использование указателей C2 : Нет

Коррекция смещения при чтении : 48
Способность читать области Lead-in и Lead-out : Нет
Заполнение пропущенных сэмплов тишиной : Да
Удаление блоков с тишиной в начале и конце : Нет
При вычислениях CRC использовались нулевые сэмплы : Да
Интерфейс : Встроенный Win32-интерфейс для Win NT/2000

Выходной формат : Monkey's Audio (без потерь)
Выбранный битрейт : High Lossless Compression
Качество : Высокий
Добавление ID3-тэга : Да
Утилита сжатия : C:\Program Files\Monkey's Audio\MAC.exe

TOC извлечённого CD

Трек | Старт | Длительность | Начальный сектор | Конечный сектор
---------------------------------------------------------------------
1 | 0:00.00 | 3:51.69 | 0 | 17393
2 | 3:51.69 | 4:18.43 | 17394 | 36786
3 | 8:10.37 | 4:25.13 | 36787 | 56674
4 | 12:35.50 | 3:26.29 | 56675 | 72153
5 | 16:02.04 | 4:19.01 | 72154 | 91579
6 | 20:21.05 | 5:49.29 | 91580 | 117783
7 | 26:10.34 | 5:48.42 | 117784 | 143925
8 | 31:59.01 | 4:42.67 | 143926 | 165142
9 | 36:41.68 | 5:01.63 | 165143 | 187780
10 | 41:43.56 | 4:39.08 | 187781 | 208713
11 | 46:22.64 | 4:41.33 | 208714 | 229821
12 | 51:04.22 | 4:37.47 | 229822 | 250643
13 | 55:41.69 | 3:43.69 | 250644 | 267437
14 | 59:25.63 | 4:41.20 | 267438 | 288532
15 | 64:07.08 | 5:21.23 | 288533 | 312630
16 | 72:00.31 | 2:23.21 | 324031 | 334776

Характеристики диапазона извлечения и сообщения об ошибках

Выбранный диапазон

Имя файла M:\Альбомы\Mr.Credo\Mr.Credo'1998 - Золотое Время\Mr.Credo - Золотое Время.wav

Пиковый уровень 96.6 %
Качество диапазона 99.9 %
CRC теста A1A0C3DF
CRC копии A1A0C3DF
Копирование... OK

Ошибок не произошло

Конец отчёта

Отчёт audiochecker:

AUDIOCHECKER v2.0 beta (build 457) - by Dester - opdester@freemail.hu
~~~~~~~~~~~~~~~~~~~~~~~~~~~~~~~~~~
-=== DO NOT EDIT THIS FILE! ===-

Path: ...\Mr Credo - Золотое Время 1998

1 -=- Mr.Credo - Золотое Время.ape -=- CDDA (100%)

45583556

(2002) Чудная Долина :



Кодек: FLAC
Битрейт: Lossless
Тип битрейта: CBR
Продолжительность: 00:51:43


Треклист:

01. К.Л.Ё.Н. (04:22)
02. Hyper Intro (02:07)
03. Шейх-Бола (04:35)
04. Буду Думать (03:35)
05. Чудная Долина (05:33)
06. Первая Любовь (03:56)
07. Медляк (04:29)
08. Белые Облака (03:50)
09. Плачет Азия (06:10)
10. За Высоким Забором (04:16)
11. Автобан (04:09)
12. Звезда Востока (04:36)


Отчёт Exact Audio Copy:

Exact Audio Copy V0.99 prebeta 4 from 23. January 2008

Отчёт EAC об извлечении, выполненном 27. сентября 2008, 3:00

Mr. Credo / Чудная долина

Дисковод: ASUS DRW-1814BL Adapter: 3 ID: 0

Режим чтения : Достоверность
Использование точного потока : Да
Отключение кэша аудио : Да
Использование указателей C2 : Нет

Коррекция смещения при чтении : 6
Способность читать области Lead-in и Lead-out : Нет
Заполнение пропущенных сэмплов тишиной : Да
Удаление блоков с тишиной в начале и конце : Нет
При вычислениях CRC использовались нулевые сэмплы : Нет
Интерфейс : Встроенный Win32-интерфейс для Win NT/2000

Выходной формат : Внутренние WAV-операции
Формат сэмплов : 44.100 Гц; 16 бит; стерео

TOC извлечённого CD

Трек | Старт | Длительность | Начальный сектор | Конечный сектор
---------------------------------------------------------------------
1 | 0:00.00 | 4:22.22 | 0 | 19671
2 | 4:22.22 | 2:07.23 | 19672 | 29219
3 | 6:29.45 | 4:35.04 | 29220 | 49848
4 | 11:04.49 | 3:35.37 | 49849 | 66010
5 | 14:40.11 | 5:33.06 | 66011 | 90991
6 | 20:13.17 | 3:56.63 | 90992 | 108754
7 | 24:10.05 | 4:29.34 | 108755 | 128963
8 | 28:39.39 | 3:50.70 | 128964 | 146283
9 | 32:30.34 | 6:10.52 | 146284 | 174085
10 | 38:41.11 | 4:16.25 | 174086 | 193310
11 | 42:57.36 | 4:09.40 | 193311 | 212025
12 | 47:07.01 | 4:36.50 | 212026 | 232775

Характеристики диапазона извлечения и сообщения об ошибках

Выбранный диапазон

Имя файла E:\НА-А-А-АШЕ!!!!!!!\Mr. Credo\2002.Чудная долина\Mr. Credo - Чудная долина.wav

Пиковый уровень 100.0 %
Качество диапазона 100.0 %
CRC теста ABDD88FF
CRC копии ABDD88FF
Копирование... OK

Ошибок не произошло

AccurateRip: сводка

Трек 1 нет в базе данных
Трек 2 нет в базе данных
Трек 3 нет в базе данных
Трек 4 нет в базе данных
Трек 5 нет в базе данных
Трек 6 нет в базе данных
Трек 7 нет в базе данных
Трек 8 нет в базе данных
Трек 9 нет в базе данных
Трек 10 нет в базе данных
Трек 11 нет в базе данных
Трек 12 нет в базе данных

Ни одного трека нет в базе AccurateRip

Конец отчёта

Отчёт audiochecker:

AUDIOCHECKER v2.0 beta (build 457) - by Dester - opdester@freemail.hu
~~~~~~~~~~~~~~~~~~~~~~~~~~~~~~~~~~
-=== DO NOT EDIT THIS FILE! ===-

Path: ...\Mr Credo - Чудная Долина 2002

1 -=- Mr.Credo'2002 - Чудная Долина.flac -=- CDDA (100%)

80693428
Время раздачи после проверки модератором: С 08:00 до 22:00 мск, и по возможности.
Скачал!? -
Детали торрента:
Название:Mr Credo - 2 Альбома (1998/2002) [APE/FLAC|Lossless]<Pop>
Дата добавления:10 Ноя 2010 08:26:31
Размер:832 MB
Раздают:
Качают:0
Форум:Отечественная поп-музыка (Lossless)

All rights reserved © 2015-2018