TORRENTS45.XYZ

Скачать Serj Tankian - Imperfect Harmonies (2010) [FLAC|Lossless]<Avantgarde, Alternative>


Serj Tankian - Imperfect Harmonies (2010)
Дата выпуска: 2010
Жанр: Rock, Avantgarde, Alternative
Формат: FLAC (tracks)
Битрейт: Lossless
Продолжительность: 00:45:42

Треклист:
01. Disowned Inc. (4:07)
02. Borders Are... (4:37)
03. Deserving? (4:05)
04. Beatus (4:41)
05. Reconstructive Demonstration (5:04)
06. Electron (3:46)
07. Gate 21 (2:43)
08. Yes, It's Genocide (3:15)
09. Peace Be Revenged (3:59)
10. Left Of Center (3:06)
11. Wings Of Summer (6:13)

Отчёт EAC:

Код: выделить все

Exact Audio Copy V0.99 prebeta 5 from 4. May 2009

EAC extraction logfile from 16. September 2010, 22:21

Serj Tankian / Imperfect Harmonies

Used drive  : TSSTcorpCD/DVDW SH-S182M   Adapter: 3  ID: 1

Read mode               : Secure
Utilize accurate stream : Yes
Defeat audio cache      : Yes
Make use of C2 pointers : No

Read offset correction                      : 6
Overread into Lead-In and Lead-Out          : No
Fill up missing offset samples with silence : Yes
Delete leading and trailing silent blocks   : No
Null samples used in CRC calculations       : Yes
Used interface                              : Native Win32 interface for Win NT & 2000
Gap handling                                : Appended to previous track

Used output format              : User Defined Encoder
Selected bitrate                : 320 kBit/s
Quality                         : High
Add ID3 tag                     : No
Command line compressor         : C:\Programme\Exact Audio Copy\Flac\flac.exe
Additional command line options : -V -8 -T "artist=%a" -T "title=%t" -T "album=%g" -T "date=%y" -T "tracknumber=%n" -T "genre=%m" %s

TOC of the extracted CD

     Track |   Start  |  Length  | Start sector | End sector
    ---------------------------------------------------------
        1  |  0:00.05 |  4:07.15 |         5    |    18544
        2  |  4:07.20 |  4:37.73 |     18545    |    39392
        3  |  8:45.18 |  4:05.58 |     39393    |    57825
        4  | 12:51.01 |  4:41.55 |     57826    |    78955
        5  | 17:32.56 |  5:04.61 |     78956    |   101816
        6  | 22:37.42 |  3:46.28 |    101817    |   118794
        7  | 26:23.70 |  2:43.01 |    118795    |   131020
        8  | 29:06.71 |  3:15.33 |    131021    |   145678
        9  | 32:22.29 |  3:59.15 |    145679    |   163618
       10  | 36:21.44 |  3:07.10 |    163619    |   177653
       11  | 39:28.54 |  4:45.53 |    177654    |   199081

Track  1

     Filename D:\EAC Ripped\Imperfect Harmonies Flac\01-Disowned Inc..wav

     Pre-gap length  0:00:02.05

     Peak level 100.0 %
     Track quality 100.0 %
     Test CRC A9C6202C
     Copy CRC A9C6202C
     Track not present in AccurateRip database
     Copy OK

Track  2

     Filename D:\EAC Ripped\Imperfect Harmonies Flac\02-Borders Are....wav

     Peak level 100.0 %
     Track quality 100.0 %
     Test CRC 502E451E
     Copy CRC 502E451E
     Track not present in AccurateRip database
     Copy OK

Track  3

     Filename D:\EAC Ripped\Imperfect Harmonies Flac\03-Deserving .wav

     Peak level 100.0 %
     Track quality 100.0 %
     Test CRC 92D42DFA
     Copy CRC 92D42DFA
     Track not present in AccurateRip database
     Copy OK

Track  4

     Filename D:\EAC Ripped\Imperfect Harmonies Flac\04-Beatus.wav

     Peak level 100.0 %
     Track quality 100.0 %
     Test CRC 81A70811
     Copy CRC 81A70811
     Track not present in AccurateRip database
     Copy OK

Track  5

     Filename D:\EAC Ripped\Imperfect Harmonies Flac\05-Reconstructive Demonstration.wav

     Peak level 100.0 %
     Track quality 99.9 %
     Test CRC B956BFF7
     Copy CRC B956BFF7
     Track not present in AccurateRip database
     Copy OK

Track  6

     Filename D:\EAC Ripped\Imperfect Harmonies Flac\06-Electron.wav

     Peak level 100.0 %
     Track quality 100.0 %
     Test CRC 096230F7
     Copy CRC 096230F7
     Track not present in AccurateRip database
     Copy OK

Track  7

     Filename D:\EAC Ripped\Imperfect Harmonies Flac\07-Gate 21.wav

     Peak level 100.0 %
     Track quality 99.9 %
     Test CRC 4B118AFE
     Copy CRC 4B118AFE
     Track not present in AccurateRip database
     Copy OK

Track  8

     Filename D:\EAC Ripped\Imperfect Harmonies Flac\08-Yes, It's Genocide.wav

     Peak level 100.0 %
     Track quality 100.0 %
     Test CRC EF153ADF
     Copy CRC EF153ADF
     Track not present in AccurateRip database
     Copy OK

Track  9

     Filename D:\EAC Ripped\Imperfect Harmonies Flac\09-Peace Be Revenged.wav

     Peak level 100.0 %
     Track quality 100.0 %
     Test CRC B169434F
     Copy CRC B169434F
     Track not present in AccurateRip database
     Copy OK

Track 10

     Filename D:\EAC Ripped\Imperfect Harmonies Flac\10-Left Of Center.wav

     Peak level 100.0 %
     Track quality 100.0 %
     Test CRC 9FB33969
     Copy CRC 9FB33969
     Track not present in AccurateRip database
     Copy OK

Track 11

     Filename D:\EAC Ripped\Imperfect Harmonies Flac\11-Wings Of Summer.wav

     Pre-gap length  0:00:00.25

     Peak level 100.0 %
     Track quality 100.0 %
     Test CRC 28E46260
     Copy CRC 28E46260
     Track not present in AccurateRip database
     Copy OK

None of the tracks are present in the AccurateRip database

No errors occurred

End of status report

Отчёт auCDtect Task manager:

Код: выделить все
-----------------------

DON'T MODIFY THIS FILE

-----------------------

PERFORMER: auCDtect Task Manager, ver. 1.6.0 RC1 build 1.6.0.1
Copyright (c) 2008-2010 y-soft. All rights reserved
http://y-soft.org

ANALYZER: auCDtect: CD records authenticity detector, version 0.8.2
Copyright (c) 2004 Oleg Berngardt. All rights reserved.
Copyright (c) 2004 Alexander Djourik. All rights reserved.

FILE: 11-Wings Of Summer.flac
  Size: 31270177 Hash: 8BCB5B146D85FF150B7401979F98ADE5 Accuracy: -m0
  Conclusion: CDDA 100%
  Signature: 3E24581707C1211A6021181429F651A705DBB976
FILE: 10-Left Of Center.flac
  Size: 23936866 Hash: EB2E828B5DADFF51E7DE0C058DDE54B0 Accuracy: -m0
  Conclusion: CDDA 100%
  Signature: 5C5EA5EC0EBD5C30B29BBD7AACD0A2C2A27CBF75
FILE: 09-Peace Be Revenged.flac
  Size: 28387558 Hash: DE646DF9F227DBB9DF90D8442B5B6A4D Accuracy: -m0
  Conclusion: CDDA 100%
  Signature: 61B2C6079D42271467B4C05322162ED080BF66F4
FILE: 08-Yes, It's Genocide.flac
  Size: 19051701 Hash: 272226731EF6390DEA5223F4124C366D Accuracy: -m0
  Conclusion: CDDA 100%
  Signature: B1C7A60DE325ED923191B8B094B498FCA2BBD2A4
FILE: 07-Gate 21.flac
  Size: 17482693 Hash: 3F7D328929B903362AF6DFB01E59CFE1 Accuracy: -m0
  Conclusion: CDDA 100%
  Signature: 90D19B6A4767A04165AA64EEF3F8F4A194F5AC2F
FILE: 06-Electron.flac
  Size: 27931281 Hash: 017952B924CFC331A527CA327000DFEA Accuracy: -m0
  Conclusion: CDDA 99%
  Signature: 95778165757720E73FA4FC86C1A62127AFD1AC6D
FILE: 05-Reconstructive Demonstration.flac
  Size: 36582558 Hash: 4787920FDC7CBB498E2116C20FFDDBF1 Accuracy: -m0
  Conclusion: CDDA 99%
  Signature: 78CA28B30F703E1F456FD80A90FD78D1D73906E8
FILE: 04-Beatus.flac
  Size: 31812557 Hash: 5BBA7FC4D174EE6A74F2C01E2E8DD918 Accuracy: -m0
  Conclusion: CDDA 100%
  Signature: 2A825A21C1739E208136F0A39B1F35CC0D4631D8
FILE: 03-Deserving .flac
  Size: 31698220 Hash: FF42BF2B65965AC8DB4A81305ED93D2D Accuracy: -m0
  Conclusion: CDDA 100%
  Signature: E6C841A9F4E669502C5F414AA9DCA8EB3F379AFB
FILE: 02-Borders Are....flac
  Size: 35593630 Hash: E7167DC996E9F7738C47687BC4CEB730 Accuracy: -m0
  Conclusion: CDDA 100%
  Signature: 08AE03D6A8FCB484884153A18ACBA470396F0DED
FILE: 01-Disowned Inc..flac
  Size: 31894675 Hash: 20F37A4DE36ECC315386720B7194D009 Accuracy: -m0
  Conclusion: CDDA 100%
  Signature: 1BA04750FE95FFD1068C55C11C6557B5F738C7AA

Содержание индексной карты (.CUE)

Код: выделить все
REM GENRE Rock
REM DATE 2010
REM DISCID 9F0A5E0B
REM COMMENT "ExactAudioCopy v0.99pb5"
CATALOG 0093624965978
PERFORMER "Serj Tankian"
TITLE "Imperfect Harmonies"
FILE "01-Disowned Inc..wav" WAVE
  TRACK 01 AUDIO
    TITLE "Disowned Inc."
    PERFORMER "Serj Tankian"
    ISRC H2IO11000600
    FLAGS DCP
    PREGAP 00:00:05
    INDEX 01 00:00:00
FILE "02-Borders Are....wav" WAVE
  TRACK 02 AUDIO
    TITLE "Borders Are..."
    PERFORMER "Serj Tankian"
    ISRC H2IO11000601
    FLAGS DCP
    INDEX 01 00:00:00
FILE "03-Deserving .wav" WAVE
  TRACK 03 AUDIO
    TITLE "Deserving?"
    PERFORMER "Serj Tankian"
    ISRC H2IO11000602
    FLAGS DCP
    INDEX 01 00:00:00
FILE "04-Beatus.wav" WAVE
  TRACK 04 AUDIO
    TITLE "Beatus"
    PERFORMER "Serj Tankian"
    ISRC H2IO11000603
    FLAGS DCP
    INDEX 01 00:00:00
FILE "05-Reconstructive Demonstration.wav" WAVE
  TRACK 05 AUDIO
    TITLE "Reconstructive Demonstration"
    PERFORMER "Serj Tankian"
    ISRC H2IO11000604
    FLAGS DCP
    INDEX 01 00:00:00
FILE "06-Electron.wav" WAVE
  TRACK 06 AUDIO
    TITLE "Electron"
    PERFORMER "Serj Tankian"
    ISRC H2IO11000605
    FLAGS DCP
    INDEX 01 00:00:00
FILE "07-Gate 21.wav" WAVE
  TRACK 07 AUDIO
    TITLE "Gate 21"
    PERFORMER "Serj Tankian"
    ISRC H2IO11000606
    FLAGS DCP
    INDEX 01 00:00:00
FILE "08-Yes, It's Genocide.wav" WAVE
  TRACK 08 AUDIO
    TITLE "Yes, It's Genocide"
    PERFORMER "Serj Tankian"
    ISRC H2IO11000607
    FLAGS DCP
    INDEX 01 00:00:00
FILE "09-Peace Be Revenged.wav" WAVE
  TRACK 09 AUDIO
    TITLE "Peace Be Revenged"
    PERFORMER "Serj Tankian"
    ISRC H2IO11000608
    FLAGS DCP
    INDEX 01 00:00:00
FILE "10-Left Of Center.wav" WAVE
  TRACK 10 AUDIO
    TITLE "Left Of Center"
    PERFORMER "Serj Tankian"
    ISRC H2IO11000563
    FLAGS DCP
    INDEX 01 00:00:00
  TRACK 11 AUDIO
    TITLE "Wings Of Summer"
    PERFORMER "Serj Tankian"
    ISRC H2IO11000609
    FLAGS DCP
    INDEX 00 03:06:60
FILE "11-Wings Of Summer.wav" WAVE
    INDEX 01 00:00:00
Детали торрента:
Название:Serj Tankian - Imperfect Harmonies (2010) [FLAC|Lossless]<Avantgarde, Alternative>
Дата добавления:06 Дек 2018 19:08:56
Размер:301 MB
Раздают:12
Качают:0
Форум:Alternative, Punk (Lossless)

All rights reserved © 2015-2018