TORRENTS45.XYZ

Скачать Моральный кодекс (Сергей Мазаев) - 8 Альбомов (1990-2010) [APE/FLAC|Lossless]<Rock>


Моральный кодекс (Сергей Мазаев) - 8 Альбомов (1990-2010)
Год: 1990-2010
Жанр: Rock
Продолжительность: 09:11:56

Кодек: APE/FLAC
Битрейт: Lossless
Моральный Кодекс - группа, хорошо известная любителям джаза и поп-рока. Придумал название, концепцию и организовал группу в 1989 году поэт, музыкант, продюсер Павел Жагун.
Для реализации будущего проекта, исполняющего "реактивный" биг-бит, dark wave, танцевальный post-punk, muzak и "acid-roll" с элементами "killer-pop", он привлёк известных московских инструменталистов.
После длительного отбора вокалистов и музыкантов было записано два альбома (на русском и английском языках), снято несколько известных клипов.
Вскоре, в начале 90-х годов, "Моральный Кодекс" занимает позицию одной из наиболее успешных отечественных рок групп. Коллектив гастролирует в России, за рубежом, снимает клипы, записывает альбомы и музыку для кино.
В настоящее время, после незначительных изменений в составе группы, проект представляют: Николай Девлет-Кильдеев (гитара, голос), Александр Солич (бас), Юрий Кистенёв (барабаны), Константин Смирнов (клавишные, программирование), Сергей Мазаев (саксофон, голос).
В последнем составе на барабанах играет американец Зихариан Салливан (Zechariah Sullivan).

1990 - Сотрясение мозга | APE (image + .cue) | (57:24)

Эта пластинка была первой ступенькой группы Моральный кодекс на пути к той бешеной популярности, которой коллектив пользуется сейчас. Несмотря на то, что альбом был выпущен на виниле в начале 90-х, такие хиты как Дети лета, До свидания, мама и Я тебя люблю остаются актуальными и всенароднолюбымими по сей день. Мы рады, что, переиздавая эту пластинку, дарим меломанам возможность услышать их любимую группу, а непосвященным - узнать, с чего начинал великий коллектив.
Продолжительность: 57:24

Треклист:

01. Сотрясение мозга №1 (3:23)
02. Она меняет свой цвет (3:48)
03. Я тебя люблю (4:23)
04. Ту-Ту (3:49)
05. Алфавит (5:15)
06. До свидания, мама! (3:09)
07. Вещий Олег (4:36)
08. Буду спать (5:17)
09. Горе (3:12)
10. Дети лета (4:00)
11. I don't care (3:36)
12. Сотрясение мозга №2 (2:08)
13. Say Good buy to Mama (3:08)
14. Wy Do tears Flow (4:39)
15. До свидания, мама! (remix) (3:02)

Сергей Мазаев - вокал
Николай Девлет-Кильдеев - гитара
Александр Солич - бас
Константин Смирнов - клавиши
Игорь Ромашов - ударные

©2003 CD Land Records (CD)
Дата релиза: 1990 г.

Лог EAC

Exact Audio Copy V0.99 prebeta 1 from 25. May 2007

Отчёт EAC об извлечении, выполненном 27. сентября 2007, 20:23

Моральный кодекс / Сотрясение мозга

Дисковод: _NEC DVD_RW ND-2500A Adapter: 0 ID: 0

Режим чтения : Достоверность
Использование точного потока : Да
Отключение кэша аудио : Да
Использование указателей C2 : Нет

Коррекция смещения при чтении : 48
Способность читать области Lead-in и Lead-out : Нет
Заполнение пропущенных сэмплов тишиной : Да
Удаление блоков с тишиной в начале и конце : Нет
Интерфейс : Установленный внешний ASPI-интерфейс

Выходной формат : Внутренние WAV-операции
Формат сэмплов : 44.100 Гц; 16 бит; стерео

TOC извлечённого CD

Трек | Старт | Длительность | Начальный сектор | Конечный сектор
---------------------------------------------------------------------
1 | 0:00.00 | 3:22.65 | 0 | 15214
2 | 3:22.65 | 3:47.55 | 15215 | 32294
3 | 7:10.45 | 4:22.55 | 32295 | 51999
4 | 11:33.25 | 3:49.17 | 52000 | 69191
5 | 15:22.42 | 5:14.51 | 69192 | 92792
6 | 20:37.18 | 3:09.32 | 92793 | 106999
7 | 23:46.50 | 4:35.60 | 107000 | 127684
8 | 28:22.35 | 5:17.36 | 127685 | 151495
9 | 33:39.71 | 3:11.67 | 151496 | 165887
10 | 36:51.63 | 3:59.72 | 165888 | 183884
11 | 40:51.60 | 3:35.61 | 183885 | 200070
12 | 44:27.46 | 2:07.67 | 200071 | 209662
13 | 46:35.38 | 3:08.14 | 209663 | 223776
14 | 49:43.52 | 4:38.52 | 223777 | 244678
15 | 54:22.29 | 3:01.45 | 244679 | 258298

Характеристики диапазона извлечения и сообщения об ошибках

Выбранный диапазон

Имя файла Z:\МУЗЫКА\Рок, альтернатива.. Россия\Моральный кодекс\Моральный кодекс - Сотрясение мозга\Моральный кодекс - Сотрясение мозга.wav

Пиковый уровень 100.0 %
Качество диапазона 99.9 %
CRC копии 5C9495E6
Копирование... OK

Ошибок не произошло

Конец отчёта

Лог Audiochecker:

AUDIOCHECKER v2.0 beta (build 457) - by Dester - opdester@freemail.hu
~~~~~~~~~~~~~~~~~~~~~~~~~~~~~~~~~~
-=== НЕ РЕДАКТИРУЙТЕ ЭТОТ ФАЙЛ! ===-

Путь: ...\1990 - Моральный кодекс - Сотрясение мозга

1 -=- Моральный кодекс - Сотрясение мозга.ape -=- CDDA (99%)

69878180

1996 - Гибкий стан | APE (image + .cue) | (1:18:19)

Этот альбом раньше был доступен лишь коллекционерам. Тираж дисков МК всегда расходился настолько хорошо, что достать старые альбомы практически невозможно. Компания CD Land Records предоставляет всем поклонникам группы и просто ценителям качественной музыки уникальную возможность стать обладателями жемчужин сокровищницы отечественного рок-н-ролла.
Продолжительность: 1:18:19

Треклист:

01. Meine Liebe (4:45)
02. Шукаю тебе (4:03)
03. Я знаю все (3:21)
04. Айм гоуин (5:39)
05. Моя мечта-это ты (5:07)
06. Countng (3:38)
07. С тобою рядом (5:05)
08. На рассвете (5:59)
09. No ones's looking out (5:13)
10. Хочу любви (3:39)
11. Time to go home (3:59)
12. Клавдия (3:58)
13. Давай сбежим (6:35)
14. Sky song (5:03)
15. Counting (original) (3:46)
16. На рассвете Vouge Mix (6:14)
17. Шукаю тебе (lights) (3:15)

Сергей Мазаев - вокал, кларнет
Николай Девлет-Кильдеев - гитара, вокал
Александр Солич - бас, вокал
Константин Смирнов - keyboards, программирование
Юрий Кистенёв - ударные

© 2003 CD Land (переиздание)
Дата релиза: 1996 г.

Лог EAC

Exact Audio Copy V0.99 prebeta 1 from 25. May 2007

Отчёт EAC об извлечении, выполненном 27. сентября 2007, 19:28

Моральный кодекс / Гибкий стан

Дисковод: _NEC DVD_RW ND-2500A Adapter: 0 ID: 0

Режим чтения : Достоверность
Использование точного потока : Да
Отключение кэша аудио : Да
Использование указателей C2 : Нет

Коррекция смещения при чтении : 48
Способность читать области Lead-in и Lead-out : Нет
Заполнение пропущенных сэмплов тишиной : Да
Удаление блоков с тишиной в начале и конце : Нет
Интерфейс : Установленный внешний ASPI-интерфейс

Выходной формат : Внутренние WAV-операции
Формат сэмплов : 44.100 Гц; 16 бит; стерео

TOC извлечённого CD

Трек | Старт | Длительность | Начальный сектор | Конечный сектор
---------------------------------------------------------------------
1 | 0:00.00 | 4:44.64 | 0 | 21363
2 | 4:44.64 | 4:02.43 | 21364 | 39556
3 | 8:47.32 | 3:20.72 | 39557 | 54628
4 | 12:08.29 | 5:39.36 | 54629 | 80089
5 | 17:47.65 | 5:07.18 | 80090 | 103132
6 | 22:55.08 | 3:37.66 | 103133 | 119473
7 | 26:32.74 | 5:04.72 | 119474 | 142345
8 | 31:37.71 | 5:58.49 | 142346 | 169244
9 | 37:36.45 | 5:12.57 | 169245 | 192701
10 | 42:49.27 | 3:38.41 | 192702 | 209092
11 | 46:27.68 | 3:58.52 | 209093 | 226994
12 | 50:26.45 | 3:58.16 | 226995 | 244860
13 | 54:24.61 | 6:35.30 | 244861 | 274515
14 | 61:00.16 | 5:02.59 | 274516 | 297224
15 | 66:03.00 | 3:46.09 | 297225 | 314183
16 | 69:49.09 | 6:13.67 | 314184 | 342225
17 | 76:03.01 | 3:15.06 | 342226 | 356856

Характеристики диапазона извлечения и сообщения об ошибках

Выбранный диапазон

Имя файла Z:\МУЗЫКА\Рок, альтернатива.. Россия\Моральный кодекс\Моральный кодекс - Гибкий стан\Моральный кодекс - Гибкий стан.wav

Пиковый уровень 100.0 %
Качество диапазона 100.0 %
CRC копии B6577296
Копирование... OK

Ошибок не произошло

Конец отчёта

Лог Audiochecker:

AUDIOCHECKER v2.0 beta (build 457) - by Dester - opdester@freemail.hu
~~~~~~~~~~~~~~~~~~~~~~~~~~~~~~~~~~
-=== НЕ РЕДАКТИРУЙТЕ ЭТОТ ФАЙЛ! ===-

Путь: ...\1996 - Моральный кодекс - Гибкий стан

1 -=- Моральный кодекс - Гибкий стан.ape -=- CDDA (99%)

109588868

1997 - Я выбираю тебя | APE (image + .cue) | (56:19)

"Моральный Кодекс" играет музыку в достаточной степени брутальную - но респектабельную. Громкую - но красивую. Не особо сложную - но грамотно сделанную. "Золотая" середина - если прибавить к этому высокий профессионализм решительно всех участников, неоспоримую харизму Сергея Мазаева и плохо сдерживаемую страсть к хорошей "высоколобой" музыке Николая Девлет-Кильдеева - у слова "золотая" кавычки можно убирать.
Продолжительность: 56:19

Треклист:

01. Я выбираю тебя (5:09)
02. Мне хорошо с тобой (5:03)
03. Ночной каприз (5:04)
04. Чужой сон (3:09)
05. Поговори (5:41)
06. Одиночество (6:25)
07. Любовь моя (4:30)
08. Моя надежда (4:43)
09. Я не хочу твоей любви (4:47)
10. Бетонная печаль (3:59)
11. Ты далеко (5:00)
12. Потерянный рай (2:48)

Сергей Мазаев - вокал, бубен
Николай Девлет-Кильдеев - гитара
Александр Солич - бас
Константин Смирнов - клавишные
Дмитрий Сланский, Юрий Кистенев (ХЭН)- ударные
В записи участвовали:
Игорь Бутман - саксофон
Юрий Кистенев (ХЭН) - ударные

2003 CD Land Records (переиздание)
Дата релиза: 1997 г.

Лог EAC

Exact Audio Copy V0.99 prebeta 1 from 25. May 2007

Отчёт EAC об извлечении, выполненном 27. сентября 2007, 20:39

Моральный кодекс / Я выбираю тебя

Дисковод: _NEC DVD_RW ND-2500A Adapter: 0 ID: 0

Режим чтения : Достоверность
Использование точного потока : Да
Отключение кэша аудио : Да
Использование указателей C2 : Нет

Коррекция смещения при чтении : 48
Способность читать области Lead-in и Lead-out : Нет
Заполнение пропущенных сэмплов тишиной : Да
Удаление блоков с тишиной в начале и конце : Нет
Интерфейс : Установленный внешний ASPI-интерфейс

Выходной формат : Внутренние WAV-операции
Формат сэмплов : 44.100 Гц; 16 бит; стерео

TOC извлечённого CD

Трек | Старт | Длительность | Начальный сектор | Конечный сектор
---------------------------------------------------------------------
1 | 0:00.00 | 5:09.33 | 0 | 23207
2 | 5:09.33 | 5:03.15 | 23208 | 45947
3 | 10:12.48 | 5:03.55 | 45948 | 68727
4 | 15:16.28 | 3:09.35 | 68728 | 82937
5 | 18:25.63 | 5:41.07 | 82938 | 108519
6 | 24:06.70 | 6:24.43 | 108520 | 137362
7 | 30:31.38 | 4:30.27 | 137363 | 157639
8 | 35:01.65 | 4:43.30 | 157640 | 178894
9 | 39:45.20 | 4:47.23 | 178895 | 200442
10 | 44:32.43 | 3:58.40 | 200443 | 218332
11 | 48:31.08 | 5:00.00 | 218333 | 240832
12 | 53:31.08 | 2:48.20 | 240833 | 253452
13 | 58:51.28 | 11:21.34 | 264853 | 315961

Характеристики диапазона извлечения и сообщения об ошибках

Выбранный диапазон

Имя файла Z:\МУЗЫКА\Рок, альтернатива.. Россия\Моральный кодекс\Моральный кодекс - Я выбираю тебя\Моральный кодекс - Я выбираю тебя.wav

Пиковый уровень 98.8 %
Качество диапазона 99.9 %
CRC копии C8019CA8
Копирование... OK

Ошибок не произошло

Конец отчёта

Лог Audiochecker:

AUDIOCHECKER v2.0 beta (build 457) - by Dester - opdester@freemail.hu
~~~~~~~~~~~~~~~~~~~~~~~~~~~~~~~~~~
-=== НЕ РЕДАКТИРУЙТЕ ЭТОТ ФАЙЛ! ===-

Путь: ...\1997 - Моральный кодекс - Я выбираю тебя

1 -=- Моральный кодекс - Я выбираю тебя.ape -=- CDDA (100%)

261989108

2001 - Хорошие новости | APE (image + .cue) | (1:14:35)

Моральный Кодекс удивляет своей способностью проноситься по изъезженным дорожкам собственного стиля, не надоедая слушателю кажущимся однообразием песен. Небрежность в версии "МК" доведена до состояния физиологического совершенства. За несколько месяцев до выхода альбома практически половина представленных здесь песен оккупировала FM-частоты. Хлёсткая "В Москве Наступает Полночь", провокационно построенные на детских считалочках "Матросы", ассоциативная "Реки И Горы", и "Запретный Плод" звучат отовсюду. MTV крутит видеоклип на песню "Кошки". Музыканты "МК" никогда не гнались за модой, но и не пытались её формировать. Они просто гнут собственную линию, играя свой вариант рок-н-ролла без инвентарного номера.
Продолжительность: 1:14:35

Треклист:

01. кошки (4:09)
02. хорошие новости (4:15)
03. почтальоны (5:25)
04. в москве наступает полночь (3:47)
05. ZED (3:50)
06. реки и горы (4:23)
07. камни (6:25)
08. движение (5:04)
09. женское тело (3:44)
10. запретный плод (2:48)
11. антарктида (4:14)
12. матросы (4:25)
13. весенние флаги (3:48)
14. шаманы-машины (5:13)
15. с тобой (4:57)
16. матросы (lights) (4:17)
17. реки и горы (ремикс) (3:50)

С. Мазаев - вокал, саксафон (3,7,9)
А. Солич - бас (1,2,5,6,8-10,12-14), контробас (3,7), альт (15)
Н. Девлет-Кильдеев - гитара, вокал (9,13), бас (4,11,15)
К. Смирнов - синтезаторы, sample loops, бэк-вокал
Ю. Кистенев - барабаны (1,2,5,10,11,15), вокал (11)
Д. Сланский - барабаны (3,4,6-9,12-14_
А. Хрипач - табла (15)

2003 CD Land Records (переиздание)
Дата релиза: 2001 г.

Лог EAC

Лог Audiochecker:

2002 - The Best | APE (image + .cue) | (1:19:36)

Продолжительность: 1:19:36

Треклист:

01. Первый снег (4:11)
02. На рассвете (6:01)
03. Реки и горы (4:18)
04. Дети лета (3:56)
05. Я выбираю тебя (5:08)
06. Мне хорошо с тобой (4:59)
07. Я тебя люблю (4:17)
08. Давай сбежим (6:39)
09. Кошки (4:05)
10. Meine liebe (4:47)
11. Ночной каприз (5:03)
12. Матросы (4:22)
13. Клавдия (4:02)
14. Шукаю тебе (4:05)
15. I'm going (5:41)
16. До свидания, мама! (3:06)
17. Ты далеко (4:57)

©2002 CD Land Records (CD)

Лог EAC

Exact Audio Copy V0.99 prebeta 1 from 25. May 2007

Отчёт EAC об извлечении, выполненном 27. сентября 2007, 21:07

Moral codeX / The Best

Дисковод: _NEC DVD_RW ND-2500A Adapter: 0 ID: 0

Режим чтения : Достоверность
Использование точного потока : Да
Отключение кэша аудио : Да
Использование указателей C2 : Нет

Коррекция смещения при чтении : 48
Способность читать области Lead-in и Lead-out : Нет
Заполнение пропущенных сэмплов тишиной : Да
Удаление блоков с тишиной в начале и конце : Нет
Интерфейс : Установленный внешний ASPI-интерфейс

Выходной формат : Внутренние WAV-операции
Формат сэмплов : 44.100 Гц; 16 бит; стерео

TOC извлечённого CD

Трек | Старт | Длительность | Начальный сектор | Конечный сектор
---------------------------------------------------------------------
1 | 0:00.00 | 4:10.45 | 0 | 18794
2 | 4:10.45 | 6:00.54 | 18795 | 45848
3 | 10:11.24 | 4:18.26 | 45849 | 65224
4 | 14:29.50 | 3:55.65 | 65225 | 82914
5 | 18:25.40 | 5:07.52 | 82915 | 105991
6 | 23:33.17 | 4:59.20 | 105992 | 128436
7 | 28:32.37 | 4:17.21 | 128437 | 147732
8 | 32:49.58 | 6:39.37 | 147733 | 177694
9 | 39:29.20 | 4:04.68 | 177695 | 196062
10 | 43:34.13 | 4:46.69 | 196063 | 217581
11 | 48:21.07 | 5:02.51 | 217582 | 240282
12 | 53:23.58 | 4:21.53 | 240283 | 259910
13 | 57:45.36 | 4:02.21 | 259911 | 278081
14 | 61:47.57 | 4:04.48 | 278082 | 296429
15 | 65:52.30 | 5:40.43 | 296430 | 321972
16 | 71:32.73 | 3:06.33 | 321973 | 335955
17 | 74:39.31 | 4:56.58 | 335956 | 358213

Характеристики диапазона извлечения и сообщения об ошибках

Выбранный диапазон

Имя файла Z:\МУЗЫКА\Рок, альтернатива.. Россия\Моральный кодекс\Moral codeX - The Best\Moral codeX - The Best.wav

Пиковый уровень 100.0 %
Качество диапазона 99.9 %
CRC копии 845D57D2
Копирование... OK

Ошибок не произошло

Конец отчёта

Лог Audiochecker:

AUDIOCHECKER v2.0 beta (build 457) - by Dester - opdester@freemail.hu
~~~~~~~~~~~~~~~~~~~~~~~~~~~~~~~~~~
-=== НЕ РЕДАКТИРУЙТЕ ЭТОТ ФАЙЛ! ===-

Путь: ...\2002 - Moral codeX - The Best

1 -=- Moral codeX - The Best.ape -=- CDDA (100%)

157730852
Моральный кодекс - Звёздная серия (2002) [FLAC|Lossless]<Rock>

2007 - Славянские танцы | APE (image + .cue) | (1:04:32 )

Безудержными "Славянскими танцами" ознаменует эту осень группа "Моральный кодекс". Компания "Мазай коммуникейшенс" подготовила к выходу новый альбом легендарных рокеров.
Новый альбом харизматичных музыкантов - результат серьезной многолетней работы на лучших студиях Москвы и Лондона. Каждый, из уже изданных студийных альбомов группы, стал по-настоящему заметным событием в российской рок-музыке.
Поклонники "Морального кодекса" ценят группу за красивый, необычный, а зачастую и просто элитарный стиль, в котором и созданы "Славянские танцы". Новые композиции "моралистов" явно придутся по душе любителям музыки, положительно выделяющейся из среды "мануфактурно-лубочной" российской эстрады. Песни "Кодекса", собранные на альбоме, очень разнообразны: среди них есть и полюбившиеся миллионам хиты ("Первый снег", "Актриса", "В твоих глазах"), и эксклюзивные композиции ("Дон Пердитто", "Праздник в пустыне"), и песни, от которых "на душе июль" ("Не уходи"), и от которых замирает дыхание ("Девятая рота", "NY&Беслан").
Продолжительность: 1:04:32

Треклист:

01. Другие (4:57)
02. NY&Беслан (3:35)
03. Московская осень (3:26)
04. До вечера (3:58)
05. Актриса (4:21)
06. Праздник в пустыне (3:57)
07. Торговец и воин (3:43)
08. В ожилании чуда (4:01)
09. Славянские танцы (4:30)
10. Не уходи (3:52)
11. Дон Пердитто (3:42)
12. В твоих глазах (3:55)
13. Первый снег (4:11)
14. 9-я рота (3:58)
15. Ясный сокол (3:15)
16. Хэй-хэй-хэй (5:10)

Сергей Мазаев - вокал, саксофон, труба, флейта
Николай Девлет-Кильдеев - гитара
Александр Солич - бас-гитара
Константин Смирнов - ударные
Zechariah Sullivan - ударные
Слова - Павел Жагун
Музыка - Никлоай Девлет-Кильдеев

запись - ABBY ROAD STUDIO (LONDON), MILLENIUM STUDIO (МОСКВА), СТУДИЯ ПАВЛА СЛОБОДКИНА (МОСКВА)

©2007 ООО "Мазай коммуникейшенс (CD)

Лог EAC

Exact Audio Copy V0.99 prebeta 1 from 25. May 2007

Отчёт EAC об извлечении, выполненном 27. сентября 2007, 20:07

Моральный кодекс / Славянские танцы

Дисковод: _NEC DVD_RW ND-2500A Adapter: 0 ID: 0

Режим чтения : Достоверность
Использование точного потока : Да
Отключение кэша аудио : Да
Использование указателей C2 : Нет

Коррекция смещения при чтении : 48
Способность читать области Lead-in и Lead-out : Нет
Заполнение пропущенных сэмплов тишиной : Да
Удаление блоков с тишиной в начале и конце : Нет
Интерфейс : Установленный внешний ASPI-интерфейс

Выходной формат : Внутренние WAV-операции
Формат сэмплов : 44.100 Гц; 16 бит; стерео

TOC извлечённого CD

Трек | Старт | Длительность | Начальный сектор | Конечный сектор
---------------------------------------------------------------------
1 | 0:00.00 | 4:57.19 | 0 | 22293
2 | 4:57.19 | 3:35.19 | 22294 | 38437
3 | 8:32.38 | 3:26.27 | 38438 | 53914
4 | 11:58.65 | 3:58.03 | 53915 | 71767
5 | 15:56.68 | 4:21.20 | 71768 | 91362
6 | 20:18.13 | 3:56.47 | 91363 | 109109
7 | 24:14.60 | 3:42.70 | 109110 | 125829
8 | 27:57.55 | 4:00.40 | 125830 | 143869
9 | 31:58.20 | 4:30.02 | 143870 | 164121
10 | 36:28.22 | 3:51.56 | 164122 | 181502
11 | 40:20.03 | 3:42.30 | 181503 | 198182
12 | 44:02.33 | 3:55.07 | 198183 | 215814
13 | 47:57.40 | 4:11.28 | 215815 | 234667
14 | 52:08.68 | 3:57.70 | 234668 | 252512
15 | 56:06.63 | 3:15.21 | 252513 | 267158
16 | 59:22.09 | 5:10.23 | 267159 | 290431

Характеристики диапазона извлечения и сообщения об ошибках

Выбранный диапазон

Имя файла Z:\МУЗЫКА\Рок, альтернатива.. Россия\Моральный кодекс\Моральный кодекс - Славянские танцы\Моральный кодекс - Славянские танцы.wav

Пиковый уровень 99.9 %
Качество диапазона 99.9 %
CRC копии 871AFBB0
Копирование... OK

Ошибок не произошло

Конец отчёта

Лог Audiochecker:

AUDIOCHECKER v2.0 beta (build 457) - by Dester - opdester@freemail.hu
~~~~~~~~~~~~~~~~~~~~~~~~~~~~~~~~~~
-=== НЕ РЕДАКТИРУЙТЕ ЭТОТ ФАЙЛ! ===-

Путь: ...\2007 - Моральный кодекс - Славянские танцы

1 -=- Моральный кодекс - Славянские танцы.ape -=- CDDA (100%)

177641940

2008 - Где ты? | FLAC (image + .cue) | (1:03:20)

Продолжительность: 1:03:20

Треклист:

01. Где ты? (4:33)
02. Моя мечта - это ты (5:09)
03. С тобою рядом (5:07)
04. Хочу любви (3:41)
05. Клавдия (4:01)
06. Давай сбежим (6:37)
07. Любовь моя (4:30)
08. Ты далеко (4:59)
09. С тобой (4:56)
10. Московская осень (3:27)
11. Не уходи (3:53)
12. В твоих глазах (3:55)
13. Актриса (4:21)
14. Первый снег (4:12)

Лог EAC

Exact Audio Copy V0.99 prebeta 3 from 28. July 2007

Отчёт EAC об извлечении, выполненном 27. декабря 2008, 22:34

Моральный кодекс / Где ты?

Дисковод: PIONEER DVD-RW DVR-112D Adapter: 0 ID: 1

Режим чтения : Достоверность
Использование точного потока : Да
Отключение кэша аудио : Да
Использование указателей C2 : Нет

Коррекция смещения при чтении : 48
Способность читать области Lead-in и Lead-out : Нет
Заполнение пропущенных сэмплов тишиной : Да
Удаление блоков с тишиной в начале и конце : Нет
При вычислениях CRC использовались нулевые сэмплы : Нет
Интерфейс : Встроенный Win32-интерфейс для Win NT/2000

Выходной формат : Пользовательский кодировщик
Выбранный битрейт : 768 kBit/s
Качество : Высокий
Добавление ID3-тэга : Нет
Утилита сжатия : C:\Program Files\Exact Audio Copy\FLAC\FLAC.EXE
Дополнительные параметры : -6 -V -T "ARTIST=%a" -T "TITLE=%t" -T "ALBUM=%g" -T "DATE=%y" -T "TRACKNUMBER=%n" -T "GENRE=%m" -T "COMMENT=%e" %s -o %d

TOC извлечённого CD

Трек | Старт | Длительность | Начальный сектор | Конечный сектор
---------------------------------------------------------------------
1 | 0:00.00 | 4:33.16 | 0 | 20490
2 | 4:33.16 | 5:08.66 | 20491 | 43656
3 | 9:42.07 | 5:07.31 | 43657 | 66712
4 | 14:49.38 | 3:40.57 | 66713 | 83269
5 | 18:30.20 | 4:00.39 | 83270 | 101308
6 | 22:30.59 | 6:37.03 | 101309 | 131086
7 | 29:07.62 | 4:29.49 | 131087 | 151310
8 | 33:37.36 | 4:59.10 | 151311 | 173745
9 | 38:36.46 | 4:56.14 | 173746 | 195959
10 | 43:32.60 | 3:26.41 | 195960 | 211450
11 | 46:59.26 | 3:52.66 | 211451 | 228916
12 | 50:52.17 | 3:55.11 | 228917 | 246552
13 | 54:47.28 | 4:21.13 | 246553 | 266140
14 | 59:08.41 | 4:11.49 | 266141 | 285014

Характеристики диапазона извлечения и сообщения об ошибках

Выбранный диапазон

Имя файла D:\торент\Моральный кодекс - Где ты.wav

Пиковый уровень 99.9 %
Качество диапазона 99.7 %
CRC копии 3F23D971
Копирование... OK

Ошибок не произошло

AccurateRip: сводка

Трек 1 нет в базе данных
Трек 2 нет в базе данных
Трек 3 нет в базе данных
Трек 4 нет в базе данных
Трек 5 нет в базе данных
Трек 6 нет в базе данных
Трек 7 нет в базе данных
Трек 8 нет в базе данных
Трек 9 нет в базе данных
Трек 10 нет в базе данных
Трек 11 нет в базе данных
Трек 12 нет в базе данных
Трек 13 нет в базе данных
Трек 14 нет в базе данных

Ни одного трека нет в базе AccurateRip

Конец отчёта

Лог Audiochecker:

AUDIOCHECKER v2.0 beta (build 457) - by Dester - opdester@freemail.hu
~~~~~~~~~~~~~~~~~~~~~~~~~~~~~~~~~~
-=== НЕ РЕДАКТИРУЙТЕ ЭТОТ ФАЙЛ! ===-

Путь: ...\2008 - Моральный кодекс - Где ты

1 -=- Моральный кодекс - Где ты.flac -=- CDDA (100%)

93279060
Сергей Мазаев - Избранное (2009) [FLAC|Lossless]<PoP, Rock>

2010 - Моральный кодекс - Избранные песни. Новая коллекция | FLAC (image + .cue) | (1:16:51)

Продолжительность: 1:16:51

Треклист:
01. До свиданья, мама! (3:07)
02. Первый снег (4:11)
03. В твоих глазах (3:54)
04. Где ты? (4:31)
05. I'm Going (5:41)
06. Я выбираю тебя (5:09)
07. Алфавит (5:13)
08. Дети лета (3:57)
09. Другие (4:57)
10. В ожидании чуда (4:00)
11. Я тебя люблю (4:20)
12. I Don't Care (3:34)
13. Ночной каприз (5:03)
14. Темные реки - высокие горы (4:20)
15. Московская осень (3:26)
16. Актриса (4:20)
17. Не уходи (3:51)
18. Сотрясение мозга (инструм.) (3:19)

Открыть

Отчёт ЕАС:]
Код:
Exact Audio Copy V0.99 prebeta 5 from 4. May 2009

EAC extraction logfile from 15. September 2010, 21:27

Моральный кодекс / Избранные песни. Новая коллекция

Used drive  : PIONEER DVD-RW  DVR-212   Adapter: 8  ID: 0

Read mode               : Secure
Utilize accurate stream : Yes
Defeat audio cache      : Yes
Make use of C2 pointers : No

Read offset correction                      : 48
Overread into Lead-In and Lead-Out          : No
Fill up missing offset samples with silence : Yes
Delete leading and trailing silent blocks   : No
Null samples used in CRC calculations       : Yes
Used interface                              : Installed external ASPI interface

Used output format : Internal WAV Routines
Sample format      : 44.100 Hz; 16 Bit; Stereo

TOC of the extracted CD

     Track |   Start  |  Length  | Start sector | End sector
    ---------------------------------------------------------
        1  |  0:00.00 |  3:07.30 |         0    |    14054
        2  |  3:07.30 |  4:10.59 |     14055    |    32863
        3  |  7:18.14 |  3:54.26 |     32864    |    50439
        4  | 11:12.40 |  4:31.20 |     50440    |    70784
        5  | 15:43.60 |  5:41.12 |     70785    |    96371
        6  | 21:24.72 |  5:08.41 |     96372    |   119512
        7  | 26:33.38 |  5:12.49 |    119513    |   142961
        8  | 31:46.12 |  3:56.44 |    142962    |   160705
        9  | 35:42.56 |  4:56.58 |    160706    |   182963
       10  | 40:39.39 |  3:59.59 |    182964    |   200947
       11  | 44:39.23 |  4:19.38 |    200948    |   220410
       12  | 48:58.61 |  3:33.56 |    220411    |   236441
       13  | 52:32.42 |  5:02.53 |    236442    |   259144
       14  | 57:35.20 |  4:19.61 |    259145    |   278630
       15  | 61:55.06 |  3:26.06 |    278631    |   294086
       16  | 65:21.12 |  4:19.59 |    294087    |   313570
       17  | 69:40.71 |  3:51.32 |    313571    |   330927
       18  | 73:32.28 |  3:18.64 |    330928    |   345841

Range status and errors

Selected range

     Filename J:\MP3\Моральный кодекс (FLAC)\2010 Избранные песни. Новая коллекция\Моральный кодекс - Избранные песни. Новая коллекция.wav

     Peak level 99.9 %
     Range quality 99.9 %
     Test CRC 38108202
     Copy CRC 38108202
     Copy OK

No errors occurred

AccurateRip summary

Track  1  not present in database
Track  2  not present in database
Track  3  not present in database
Track  4  not present in database
Track  5  not present in database
Track  6  not present in database
Track  7  not present in database
Track  8  not present in database
Track  9  not present in database
Track 10  not present in database
Track 11  not present in database
Track 12  not present in database
Track 13  not present in database
Track 14  not present in database
Track 15  not present in database
Track 16  not present in database
Track 17  not present in database
Track 18  not present in database

None of the tracks are present in the AccurateRip database

End of status report

Отчёт auCDtect:

Код:
-----------------------

DON'T MODIFY THIS FILE

-----------------------

PERFORMER: auCDtect Task Manager, ver. 1.5.1RC3 build 1.5.1.4
Copyright (c) 2008-2010 y-soft. All rights reserved
http://y-soft.org

ANALYZER: auCDtect: CD records authenticity detector, version 0.8.2
Copyright (c) 2004 Oleg Berngardt. All rights reserved.
Copyright (c) 2004 Alexander Djourik. All rights reserved.

FILE: Моральный кодекс - Избранные песни. Новая коллекция.flac
  Size: 582574004 Hash: 196AF7E58529683302D085F38358774E Accuracy: -m0
  Conclusion: CDDA 99%
  Signature: 792F894C5D356A755FE5BA6B8A846072A95BA2DE

Детали торрента:
Название:Моральный кодекс (Сергей Мазаев) - 8 Альбомов (1990-2010) [APE/FLAC|Lossless]<Rock>
Дата добавления:24 Ноя 2010 16:42:14
Размер:3,82 GB
Раздают:4
Качают:0
Форум:Русский Рок (Lossless)

All rights reserved © 2015-2018