TORRENTS45.XYZ

Скачать Yoshida Brothers - Prism (2009) [FLAC|Lossless]<Японские национальные инструменты с современной аранжировкой>


Yoshida Brothers - Prism (2009)
Год: 2009
Жанр: Японские национальные инструменты с современной аранжировкой
Продолжительность: 00:46:48

Кодек: FLAC
Битрейт: Lossless
Тип битрейта: CBR

Треклист:
01. The National Anthem (Greenwood)
02. Seven (Yoshida/Inoue)
03. One Long River (Hoop)
04. Red Bird (Akai Tori) (Yoshida/Inoue)
05. Mr. Nagano's Foolish Proposal (Baerwald)
06. Hujin (Yoshida)
07. Akita Obako (Minyo)
08. Summer Day (Chamberlain/Froom/G)
09. Michi (Yoshida/Inoue)
10. Aiya (Yoshida)
11. End of the World (Yoshida)

Отчёт ЕАС:

Exact Audio Copy V0.99 prebeta 4 from 23. January 2008

EAC extraction logfile from 01. September 2009, 12:29

Yoshida Brothers / Prism

Used drive : Optiarc DVD RW AD-7170A Adapter: 0 ID: 1

Read mode : Secure
Utilize accurate stream : Yes
Defeat audio cache : Yes
Make use of C2 pointers : No

Read offset correction : 48
Overread into Lead-In and Lead-Out : No
Fill up missing offset samples with silence : Yes
Delete leading and trailing silent blocks : No
Null samples used in CRC calculations : Yes
Used interface : Native Win32 interface for Win NT & 2000

Used output format : Internal WAV Routines
Sample format : 44.100 Hz; 16 Bit; Stereo

TOC of the extracted CD

Track | Start | Length | Start sector | End sector
---------------------------------------------------------
1 | 0:00.00 | 4:39.39 | 0 | 20963
2 | 4:39.39 | 5:18.46 | 20964 | 44859
3 | 9:58.10 | 2:54.56 | 44860 | 57965
4 | 12:52.66 | 4:58.30 | 57966 | 80345
5 | 17:51.21 | 4:02.62 | 80346 | 98557
6 | 21:54.08 | 3:26.51 | 98558 | 114058
7 | 25:20.59 | 4:15.45 | 114059 | 133228
8 | 29:36.29 | 2:43.63 | 133229 | 145516
9 | 32:20.17 | 3:21.47 | 145517 | 160638
10 | 35:41.64 | 3:34.64 | 160639 | 176752
11 | 39:16.53 | 7:31.33 | 176753 | 210610

Range status and errors

Selected range

Filename D:\Rip\Yoshida Brothers - Prism\Yoshida Brothers - Prism.wav

Peak level 100.0 %
Range quality 100.0 %
Test CRC 9553BC1F
Copy CRC 9553BC1F
Copy OK

No errors occurred

AccurateRip summary

Track 1 not present in database
Track 2 not present in database
Track 3 not present in database
Track 4 not present in database
Track 5 not present in database
Track 6 not present in database
Track 7 not present in database
Track 8 not present in database
Track 9 not present in database
Track 10 not present in database
Track 11 not present in database

None of the tracks are present in the AccurateRip database

End of status report

Отчёт Audiochecker:

AUDIOCHECKER v2.0 beta (build 457) - by Dester - opdester@freemail.hu
~~~~~~~~~~~~~~~~~~~~~~~~~~~~~~~~~~
-=== НЕ РЕДАКТИРУЙТЕ ЭТОТ ФАЙЛ! ===-

Путь: ...\Yoshida Brothers - Prism

1 -=- Yoshida Brothers - Prism.flac -=- CDDA (100%)

81934980
Детали торрента:
Название:Yoshida Brothers - Prism (2009) [FLAC|Lossless]<Японские национальные инструменты с современной аранжировкой>
Дата добавления:06 Дек 2018 19:11:52
Размер:267 MB
Раздают:20
Качают:0
Форум:Asian Traditional, Ethnic (Lossless)

All rights reserved © 2015-2018