TORRENTS45.XYZ

Скачать BBC: Дневник большой кошки / Big Cat Diary (Big Cat Week) (2006 - 2007) TVRip (сезоны 7 и 8, серий 10 из 10)


Дневник большой кошки / Big Cat Diary (Big Cat Week) (2006 - 2007) TVRip (сезоны 7 и 8)
Производство: Великобритания, British Broadcasting Corporation (BBC), Discovery Channel
Жанр: Документальный

Описание:
Цикл «Дневник большой кошки» рассказывает нам о судьбах африканских больших кошек: львов, леопардов и гепардов.
Съемочная группа из 8-ми операторов наблюдает за жизнью этих животных в заповеднике Масаи-Мара в Кении. Авторы фильма не просто рассказывают о больших кошках, как о видах, но и прослеживают судьбы каждого конкретного животного день за днём, неделя за неделей, из года в год.

Первый сезон был снят в 1996 году, после его успеха продолжение снимали каждые 2 года (1998, 2000, 2002, 2004). В 2004-м году был изменен формат и сезоны стали ежегодными (2005, 2006). Изменили и имя цикла на канале BBC на «Big Cat Week», в то время как Animal Planet продолжает показывать его как «Big Cat Diary».
В 2006-м году к 10-летию программы был выпущен DVD с сезонами 2004 и 2005. После этого в 2006-м году издали еще один DVD с сезоном 2006 + бонусный фильм «Big Cat Diary Special».


Возраст: 12+ (зрителям, достигшим 12 лет)

Отдельное спасибо alex198025
Продолжительность: 3:52:55
Качество видео: TVRip
Перевод: Двухголосый закадровый, профессиональный

Примечание: Вырезаны куски-склейки между эпизодами, где операторы катаются на джипах от одного места к другому.
Вырезаны эпизоды: "Сейчас будут класные кадры, ах нет опять не получилось". И тому подобное растягивание времени.

Видео: DivX, 696x568 (1.33:1), ~2600 Kbps
Аудио #1: MP3, 2 ch, 64 Kbps - русский закадровый перевод

Mediainfo:


Общее
Полное имя : /Dnevnik.Bolshoj.Koshki.2006.DivX.TVRip_by_ArtZ.avi
Формат : AVI
Формат/Информация : Audio Video Interleave
Профиль формата : OpenDML
Размер файла : 4,34 Гбайт
Продолжительность : 3 ч. 52 м.
Общий поток : 2669 Кбит/сек
Библиотека кодирования : VirtualDub build 24473/release

Видео
Идентификатор : 0
Формат : MPEG-4 Visual
Настройки формата : BVOP2
Параметр BVOP формата : 2
Параметр QPel формата : Нет
Параметр GMC формата : Без точки перехода
Параметр матрицы формата : Default (H.263)
Режим смешивания : Сжатый битовый поток
Идентификатор кодека : DX50
Идентификатор кодека/Подсказка : DivX 5
Продолжительность : 3 ч. 52 м.
Битрейт : 2600 Кбит/сек
Номинальный битрейт : 7800 Кбит/сек
Ширина : 696 пикселей
Высота : 568 пикселей
Соотношение сторон : 1,225
Частота кадров : 25,000 кадров/сек
Цветовое пространство : YUV
Субдискретизация насыщенности : 4:2:0
Битовая глубина : 8 бит
Тип развёртки : Прогрессивная
Метод сжатия : С потерями
Бит/(Пиксели*Кадры) : 0.263
Размер потока : 4,23 Гбайт (97%)
Библиотека кодирования : DivX 6.6.1

Аудио
Идентификатор : 1
Формат : MPEG Audio
Версия формата : Version 1
Профиль формата : Layer 3
Идентификатор кодека : 55
Идентификатор кодека/Подсказка : MP3
Продолжительность : 3 ч. 52 м.
Вид битрейта : Постоянный
Битрейт : 64,0 Кбит/сек
Каналы : 1 канал
Частота : 48,0 КГц
Метод сжатия : С потерями
Размер потока : 107 Мбайт (2%)
Выравнивание : Разделение по промежуткам
Продолжительность промежутка : 1000 мс. (25,00 видеокадров)
Время предзагрузки промежутка : 500 мс.
Скриншоты:


Все релизы и сезоны этого сериала в Клубе
Детали торрента:
Название:BBC: Дневник большой кошки / Big Cat Diary (Big Cat Week) (2006 - 2007) TVRip (сезоны 7 и 8, серий 10 из 10)
Дата добавления:06 Дек 2018 19:35:01
Размер:4,34 GB
Раздают:4
Качают:0
Форум:BBC

All rights reserved © 2015-2018