TORRENTS45.XYZ

Скачать BBC: Дневник большой кошки / Big Cat Diary (Big Cat Week) (1998) SATRip (сезон 2, серии 1-10 из 10)


Дневник большой кошки / Big Cat Diary (Big Cat Week) (1998) SATRip (сезон 2)
Производство: Великобритания, British Broadcasting Corporation (BBC), Discovery Channel
Жанр: Документальный

Описание:
Цикл «Дневник большой кошки» рассказывает нам о судьбах африканских больших кошек: львов, леопардов и гепардов.
Съемочная группа из 8-ми операторов наблюдает за жизнью этих животных в заповеднике Масаи-Мара в Кении. Авторы фильма не просто рассказывают о больших кошках, как о видах, но и прослеживают судьбы каждого конкретного животного день за днём, неделя за неделей, из года в год.

Первый сезон был снят в 1996 году, после его успеха продолжение снимали каждые 2 года (1998, 2000, 2002, 2004). В 2004-м году был изменен формат и сезоны стали ежегодными (2005, 2006). Изменили и имя цикла на канале BBC на «Big Cat Week», в то время как Animal Planet продолжает показывать его как «Big Cat Diary».
В 2006-м году к 10-летию программы был выпущен DVD с сезонами 2004 и 2005. После этого в 2006-м году издали еще один DVD с сезоном 2006 + бонусный фильм «Big Cat Diary Special».


Возраст: 12+ (зрителям, достигшим 12 лет)

Отдельное спасибо fpanther
Продолжительность: 03:52:09 (10 эпизодов по ~23 минуты)
Качество видео: SATRip
Перевод: Одноголосый закадровый, профессиональный

Видео: DivX 5, 640x480, 1000 Kbps
Аудио: MP3, 1 ch, 64 Kbps

Mediainfo:


Общее
Полное имя : /Дневник большой кошки. 2-й сезон. 1998/BCD_S2_01.avi
Формат : AVI
Формат/Информация : Audio Video Interleave
Размер файла : 178 Мбайт
Продолжительность : 23 м. 11 с.
Общий поток : 1074 Кбит/сек
Библиотека кодирования : VirtualDub-MPEG2 build 18294/release

Видео
Идентификатор : 0
Формат : MPEG-4 Visual
Настройки формата : BVOP1
Параметр BVOP формата : 1
Параметр QPel формата : Нет
Параметр GMC формата : Без точки перехода
Параметр матрицы формата : Default (H.263)
Режим смешивания : Сжатый битовый поток
Идентификатор кодека : DX50
Идентификатор кодека/Подсказка : DivX 5
Продолжительность : 23 м. 11 с.
Битрейт : 1001 Кбит/сек
Номинальный битрейт : 6951 Кбит/сек
Ширина : 640 пикселей
Высота : 480 пикселей
Соотношение сторон : 4:3
Частота кадров : 25,000 кадров/сек
Цветовое пространство : YUV
Субдискретизация насыщенности : 4:2:0
Битовая глубина : 8 бит
Тип развёртки : Прогрессивная
Метод сжатия : С потерями
Бит/(Пиксели*Кадры) : 0.130
Размер потока : 166 Мбайт (93%)
Библиотека кодирования : DivX 5.2.1 (DrDivX 106) (UTC 2004-09-08)

Аудио
Идентификатор : 1
Формат : MPEG Audio
Версия формата : Version 1
Профиль формата : Layer 3
Идентификатор кодека : 55
Идентификатор кодека/Подсказка : MP3
Продолжительность : 23 м. 11 с.
Вид битрейта : Постоянный
Битрейт : 64,0 Кбит/сек
Каналы : 1 канал
Частота : 32,0 КГц
Метод сжатия : С потерями
Размер потока : 10,6 Мбайт (6%)
Выравнивание : Разделение по промежуткам
Продолжительность промежутка : 40 мс. (1,00 видеокадр)
Время предзагрузки промежутка : 500 мс.
Скриншоты:



Все релизы и сезоны этого сериала в Клубе
Детали торрента:
Название:BBC: Дневник большой кошки / Big Cat Diary (Big Cat Week) (1998) SATRip (сезон 2, серии 1-10 из 10)
Дата добавления:06 Дек 2018 19:16:11
Размер:1,74 GB
Раздают:3
Качают:0
Форум:BBC

All rights reserved © 2015-2018