TORRENTS45.XYZ

Скачать Mark Knopfler and Emmylou Harris - Real Live Roadrunning (2006) DVDRip


Mark Knopfler and Emmylou Harris "Real Live Roadrunning" (2006) DVDRip
Исполнители: Mark Knopfler and Emmylou Harris
Название: Real Live Roadrunning
Год выпуска: 2006
Жанр: Концерт, Rock/Country
Описание фильма:
Великолепный концерт Марка Нопфлера и Эммилоу Харрис, состоявшийся 13 ноября 2006 года в Лос-Анжелесcком Gibson Amphitheatre
Рeжиссер: Martyn Atkins
Состав
* Mark Knopfler – guitar, vocals
* Emmylou Harris – guitar, vocals
* Guy Fletcher – keyboards
* Richard Bennett – guitar
* Glenn Worf – bass
* Danny Cummings – drums
* Matt Rollings – keyboards
* Stuart Duncan – fiddle, mandolin
Продолжительность: 01:41:50

Видеокодек: DivX 5
Битрейт видео: ~1581kbps
Размер кадра: 720x400
Качество видео: DVDRip
Аудиокодек: MP3 2.0
Битрейт аудио: 320 kbps

Треклист

    Треклист:
    01. Right Now Live
    02. Red Staggerwing
    03. Red Dirt Girl
    04. I Dug Up A Diamond
    05. Born To Run
    06. Done With Bonaparte
    07. Romeo And Juliet
    08. Song For Sonny Liston
    09. Belle Starr
    10. This Is Us
    11. All The Roadrunning
    12. Boulder To Birmingham
    13. Speedway At Nazareth
    14. So Far Away
    15. Our Shangri-La
    16. If This Is Goodbye
    17. Why Worry

MediaInfo

Полное имя : Z:\Концерты\2006 Real Live Roadrunning.avi
Формат : AVI
Формат/Информация : Audio Video Interleave
Размер файла : 1,36 Гбайт
Продолжительность : 1 ч. 41 м.
Общий поток : 1914 Кбит/сек
Программа кодирования : Nandub v1.0rc2
Библиотека кодирования : Nandub build 1853/release

Видео
Идентификатор : 0
Формат : MPEG-4 Visual
Параметр BVOP формата : Да
Параметр QPel формата : Нет
Параметр GMC формата : Без точки перехода
Параметр матрицы формата : Default (H.263)
Идентификатор кодека : DX50
Идентификатор кодека/Подсказка : DivX 5
Продолжительность : 1 ч. 41 м.
Битрейт : 1581 Кбит/сек
Ширина : 720 пикселей
Высота : 400 пикселей
Соотношение сторон : 16:9
Частота кадров : 23,976 кадра/сек
Цветовое пространство : YUV
Субдискретизация насыщенности : 4:2:0
Битовая глубина : 8 бит
Тип развёртки : Прогрессивная
Метод сжатия : С потерями
Бит/(Пиксели*Кадры) : 0.229
Размер потока : 1,12 Гбайт (83%)
Библиотека кодирования : DivX 6.1.0 (UTC 2005-12-12)

Аудио
Идентификатор : 1
Формат : MPEG Audio
Версия формата : Version 1
Профиль формата : Layer 3
Режим : Joint stereo
Расширение режима : MS Stereo
Идентификатор кодека : 55
Идентификатор кодека/Подсказка : MP3
Продолжительность : 1 ч. 41 м.
Вид битрейта : Постоянный
Битрейт : 320 Кбит/сек
Каналы : 2 канала
Частота : 48,0 КГц
Метод сжатия : С потерями
Размер потока : 233 Мбайт (17%)
Выравнивание : Соединение по промежуткам
Продолжительность промежутка : 24 мс. (0,58 видеокадр)
Время предзагрузки промежутка : 6108488 мс.
Библиотека кодирования : LAME3.97 (beta)
Скриншоты:


Детали торрента:
Название:Mark Knopfler and Emmylou Harris - Real Live Roadrunning (2006) DVDRip
Дата добавления:10 Фев 2010 12:08:08
Размер:1,36 GB
Раздают:1
Качают:0
Форум:Концерты

All rights reserved © 2015-2019