TORRENTS45.XYZ

Скачать Mark Knopfler and Emmylou Harris - Real Live Roadrunning (2006) [FLAC|Lossless]<Rock/Country>


Mark Knopfler and Emmylou Harris - Real Live Roadrunning (2006)
Год: 2006
Жанр: Rock/Country
Продолжительность: 01:15:10
Производитель диска: Universal/Mercury
Католог №: 0602517082083
Кодек: FLAC
Битрейт: Lossless
Тип рипа: image+.cue
Сканы: присутствуют

Треклист:
    01. Right Now (4:53)
    02. Red Staggerwing (4:54)
    03. Red Dirt Girl (4:32)
    04. Done with Bonaparte (5:17)
    05. Romeo and Juliet (9:13)
    06. All That Matters (bonus track) (3:21)
    07. This Is Us (5:19)
    08. All the Roadrunning (5:20)
    09. Boulder To Birmingham (3:40)
    10. Speedway At Nazareth (6:59)
    11. So Far Away (4:43)
    12. Our Shangri-La (7:56)
    13. If This Is Goodbye (4:54)
    14. Why Worry (4:10)

Отчёт ЕАС:


Exact Audio Copy V0.99 prebeta 4 from 23. January 2008

Отчёт EAC об извлечении, выполненном 15. сентября 2009, 20:59

Mark Knopfler and Emmylou Harris / Real Live Roadrunning

Дисковод: PLEXTOR DVDR PX-800A Adapter: 0 ID: 0

Режим чтения : Достоверность
Использование точного потока : Да
Отключение кэша аудио : Да
Использование указателей C2 : Нет

Коррекция смещения при чтении : 48
Способность читать области Lead-in и Lead-out : Нет
Заполнение пропущенных сэмплов тишиной : Да
Удаление блоков с тишиной в начале и конце : Нет
При вычислениях CRC использовались нулевые сэмплы : Да
Интерфейс : Встроенный Win32-интерфейс для Win NT/2000

Выходной формат : Внутренние WAV-операции
Формат сэмплов : 44.100 Гц; 16 бит; стерео

TOC извлечённого CD

Трек | Старт | Длительность | Начальный сектор | Конечный сектор
---------------------------------------------------------------------
1 | 0:00.00 | 4:52.48 | 0 | 21947
2 | 4:52.48 | 4:53.70 | 21948 | 43992
3 | 9:46.43 | 4:31.71 | 43993 | 64388
4 | 14:18.39 | 5:16.52 | 64389 | 88140
5 | 19:35.16 | 9:13.36 | 88141 | 129651
6 | 28:48.52 | 3:20.68 | 129652 | 144719
7 | 32:09.45 | 5:18.49 | 144720 | 168618
8 | 37:28.19 | 5:20.37 | 168619 | 192655
9 | 42:48.56 | 3:39.39 | 192656 | 209119
10 | 46:28.20 | 6:59.06 | 209120 | 240550
11 | 53:27.26 | 4:43.21 | 240551 | 261796
12 | 58:10.47 | 7:56.22 | 261797 | 297518
13 | 66:06.69 | 4:53.43 | 297519 | 319536
14 | 71:00.37 | 4:09.53 | 319537 | 338264

Характеристики диапазона извлечения и сообщения об ошибках

Выбранный диапазон

Имя файла F:\Temp\Mark Knopfler and Emmylou Harris\2006 Real Live Roadrunning.wav

Пиковый уровень 99.5 %
Качество диапазона 99.9 %
CRC копии 50D7017D
Копирование... OK

Ошибок не произошло

Конец отчёта

Отчёт Audiochecker:


AUDIOCHECKER v2.0 beta (build 457) - by Dester - opdester@freemail.hu
~~~~~~~~~~~~~~~~~~~~~~~~~~~~~~~~~~

Начато: среда, 10. 02. 2010. - 10:17.03
Найдено файлов: 1

1 -===- D:\2006 Real Live Roadrunning.flac
Извлечение успешно выполнено
Заключение: этот трек - CDDA с вероятностью 100%
Временный файл удалён.

Завершено: среда, 10. 02. 2010. - 10:28.47 (Время операции: 0:11.43)

Отчёт auCDtect Task manager:


-----------------------

DON'T MODIFY THIS FILE

-----------------------

PERFORMER: auCDtect Task Manager, ver. 1.6.0 RC1 build 1.6.0.1
Copyright (c) 2008-2010 y-soft. All rights reserved
http://y-soft.org

ANALYZER: auCDtect: CD records authenticity detector, version 0.8.2
Copyright (c) 2004 Oleg Berngardt. All rights reserved.
Copyright (c) 2004 Alexander Djourik. All rights reserved.

FILE: 2006 Real Live Roadrunning.flac
Size: 462497066 Hash: FFE159ECD018D6FB0E5942D97D64D936 Accuracy: -m0
Conclusion: CDDA 100%
Signature: A530825BD311428F14330F4B0E2F403E4AB5577B

DVDRip концерта находится тут: Mark Knopfler and Emmylou Harris - Real Live Roadrunning (2006) DVDRip
Реставрация от: Dimitrows
Детали торрента:
Название:Mark Knopfler and Emmylou Harris - Real Live Roadrunning (2006) [FLAC|Lossless]<Rock/Country>
Дата добавления:10 Фев 2010 12:07:34
Размер:485 MB
Раздают:
Качают:0
Форум:Rock (Lossless)

All rights reserved © 2015-2019