TORRENTS45.XYZ

Скачать Ущерб / Damage (1992) DVDRip


Ущерб / Damage (1992) DVDRip
Производство: Великобритания, Франция / Nouvelles Éditions de Films (NEF), Skreba Films, StudioCanal
Жанр: Драма, Мелодрама

Режиссер: Луи Маль
Продюсер: Луи Маль, Венсан Маль, Саймон Релф
Актеры: Джереми Айронс, Жюльет Бинош, Миранда Ричардсон, Руперт Грейвз, Иэн Бэннен, Петер Стормаре, Джемма Кларк, Джулиан Феллоуз, Лесли Карон, Тони Дойл и др.

Описание:
Экранизация по роману Жозефин Харт. Жизнь 50-летнего Стивена Флеминга, высокопоставленного чиновника и семейного человека, неожиданно обретает яркие краски после того, как он знакомится с невестой своего сына Анной, молодой скромной предпринимательницей, ведущей замкнутый образ жизни. Не в силах сопротивляться нахлынувшим чувствам, Стивен полностью отдается всепоглощающей страсти.


Возраст: 18+ (зрителям, достигшим 18 лет. запрещено для детей)
Рейтинг MPAA: R (лицам до 17 лет обязательно присутствие взрослого)

Релиз от: Morganaz

Продолжительность: 01:51:00
Качество видео: DVDRip
Перевод: Многоголосый закадровый
Субтитры: отсутствуют

Видео: Xvid, 720х448 (16:10), ~2280 kbps
Аудио: AC3, 6 ch, 384 kbps - русский

Mediainfo:


Общее
Полное имя : M:\002_µTorrent\µTorrent seeds\Damage\Damage.avi
Формат : AVI
Формат/Информация : Audio Video Interleave
Профиль формата : OpenDML
Размер файла : 2,08 Гбайт
Продолжительность : 1 ч. 51 м.
Общий поток : 2675 Кбит/сек
Программа кодирования : VirtualDubMod 1.5.4.1 (build 2178/release)
Библиотека кодирования : VirtualDubMod build 2178/release

Видео
Идентификатор : 0
Формат : MPEG-4 Visual
Профиль формата : Advanced Simple@L5
Настройки формата : Custom Matrix
Параметр BVOP формата : Нет
Параметр QPel формата : Нет
Параметр GMC формата : Без точки перехода
Параметр матрицы формата : Выборочная
Идентификатор кодека : XVID
Идентификатор кодека/Подсказка : XviD
Продолжительность : 1 ч. 51 м.
Битрейт : 2282 Кбит/сек
Ширина : 720 пикселей
Высота : 448 пикселей
Соотношение сторон : 16:10
Частота кадров : 25,000 кадров/сек
Цветовое пространство : YUV
Субдискретизация насыщенности : 4:2:0
Битовая глубина : 8 бит
Тип развёртки : Прогрессивная
Метод сжатия : С потерями
Бит/(Пиксели*Кадры) : 0.283
Размер потока : 1,77 Гбайт (85%)
Библиотека кодирования : XviD 1.2.1 (UTC 2008-12-04)

Аудио
Идентификатор : 1
Формат : AC-3
Формат/Информация : Audio Coding 3
Коммерческое название : Dolby Digital
Идентификатор кодека : 2000
Продолжительность : 1 ч. 51 м.
Вид битрейта : Постоянный
Битрейт : 384 Кбит/сек
Каналы : 6 каналов
Channel layout : L R C LFE Ls Rs
Частота : 48,0 КГц
Частота кадров : 31,250 кадров/сек (1536 SPF)
Битовая глубина : 16 бит
Метод сжатия : С потерями
Задержка видео : 8 с. 0 мс.
Размер потока : 305 Мбайт (14%)
Выравнивание : Разделение по промежуткам
Продолжительность промежутка : 96 мс. (2,40 видеокадра)
Время предзагрузки промежутка : 96 мс.
Язык : Russian
ServiceKind/String : Complete Main

Награды и номинации:

Премия BAFTA за лучшую женскую роль второго плана - Миранда Ричардсон
Премия Ассоциации кинокритиков Лос-Анджелеса в номинации музыка к фильму - Збигнев Прейснер
Номинация: Премия Сезара за лучшую женскую роль - Жюльетт Бинош
Номинация: Оскар за лучшую женскую роль второго плана - Миранда Ричардсон
Номинация: «Золотой глобус» за лучшую второго плана - Миранда Ричардсон
Скриншоты:


Все одноименные релизы в Клубе

Смотреть Online

http://moonwalk.cc/video/32b1e6f0160e7005/iframe
Детали торрента:
Название:Ущерб / Damage (1992) DVDRip
Дата добавления:23 Авг 2009 13:40:16
Размер:2,08 GB
Раздают:9
Качают:0
Форум:Зарубежные Фильмы (HD*Rip/LQ, DVDRip, SATRip, VHSRip)

All rights reserved © 2015-2018