TORRENTS45.XYZ

Скачать Pendulum - Live at Brixton Academy (2008) DVDRip


Pendulum - Live at Brixton Academy (2008) DVDRip
Год выпуска на DVD: 2009
Жанр: Концерт, Drum & Bass>
Описание :
Взятый от их феноменальных шоу в Brixton Academy в декабре 2008, этот невероятный лайв включает в себя взрывные перформансы всех треков-убийц Pendulum-a и самых хитовых композиций на тот день, плюс эксклюзивные треки: интерпретация The Prodigy's 'Voodoo People', их зажигательный мэш-ап ‘Slam’ и классики Metallica ‘Master of Puppets’, а так же единственная официальная запись трека ‘Tarantula’!
Треклист:
01. Intro
02. Showdown
03. Fasten Your Seatbelt
04. Another Planet
05. Voodoo People (Pendulum Remix)
06. Propane Nightmare
07. 9000 Miles
08. Midnight Runner
09. Mutiny
10. Blood Sugar
11. The Other Side
12. Different
13. Master Of Puppets
14. Slam
15. Hold Your Colour
16. Tarantula
17. Granite
18. The Tempest
19. Credits
Продолжительность: 01:35:09
Состав: Роб Свайр, Гарет МакГриллен, Перри Гвинедд, Пол Хардинг, Кевин Соука, Бэн Маунт
Видео: AVC/H.264, 4600 kbps, 1280x720
Аудио: AAC 2.0, 256 kbps

MediaInfo

Код:

       Полное имя                               : K:\UpRG-Концерты\Pendulum-Live-At-Brixton-Academy.mov
Формат                                   : MPEG-4
Профиль формата                          : QuickTime
Идентификатор кодека                     : qt
Размер файла                             : 3,23 Гбайт
Продолжительность                        : 1 ч. 35 м.
Общий поток                              : 4861 Кбит/сек
Дата кодирования                         : UTC 2009-06-07 17:07:05
Дата пометки                             : UTC 2009-06-07 17:09:31
Библиотека кодирования                   : Apple QuickTime

Видео
Идентификатор                            : 2
Формат                                   : AVC
Формат/Информация                        : Advanced Video Codec
Профиль формата                          : Main@L3.2
Параметр CABAC формата                   : Нет
Параметр ReFrames формата                : 2 кадра
Параметр GOP формата                     : M=2, N=24
Идентификатор кодека                     : avc1
Идентификатор кодека/Информация          : Advanced Video Coding
Продолжительность                        : 1 ч. 35 м.
Битрейт                                  : 4600 Кбит/сек
Ширина                                   : 1280 пикселей
Высота                                   : 720 пикселей
Соотношение сторон                       : 16:9
Режим частоты кадров                     : Постоянный
Частота кадров                           : 25,000 кадров/сек
Цветовое пространство                    : YUV
Субдискретизация насыщенности            : 4:2:0
Битовая глубина                          : 8 бит
Тип развёртки                            : Прогрессивная
Бит/(Пиксели*Кадры)                      : 0.200
Размер потока                            : 3,06 Гбайт (95%)
Язык                                     : English
Дата кодирования                         : UTC 2009-06-07 16:58:00
Дата пометки                             : UTC 2009-06-07 17:09:31
Основные цвета                           : BT.709
Характеристики трансфера                 : BT.709
Коэффициенты матрицы                     : BT.709

Аудио
Идентификатор                            : 1
Формат                                   : AAC
Формат/Информация                        : Advanced Audio Codec
Профиль формата                          : LC
Идентификатор кодека                     : 40
Продолжительность                        : 1 ч. 35 м.
Продолжительность оригинала              : 1 ч. 35 м.
Вид битрейта                             : Постоянный
Битрейт                                  : 256 Кбит/сек
Каналы                                   : 2 канала
Расположение каналов                     : Front: L R
Частота                                  : 48,0 КГц
Метод сжатия                             : С потерями
Размер потока                            : 174 Мбайт (5%)
Размер потока оригинала                  : 174 Мбайт (5%)
Язык                                     : English
Дата кодирования                         : UTC 2009-06-07 16:58:00
Дата пометки                             : UTC 2009-06-07 17:09:31         
Скриншоты:

.
Детали торрента:
Название:Pendulum - Live at Brixton Academy (2008) DVDRip
Дата добавления:02 Авг 2009 20:29:14
Размер:3,23 GB
Раздают:1
Качают:0
Форум:Концерты

All rights reserved © 2015-2018