TORRENTS45.XYZ

Скачать Фристайл. Чемпионат мира 2019. Парк-Сити (США). Слоупстайл. Мужчины (2019) IPTVRip [H.264/1080p-LQ]


Фристайл. Чемпионат мира 2019. Парк-Сити (США).
Слоупстайл. Мужчины (2019) IPTVRip [H.264/1080p-LQ]

Телекомпания: Матч! Арена HD
Жанр: Спорт

Комментаторы: Дмитрий Бобцов, Екатерина Столярова

Описание: 06 февраля 2019 года
3-й совместный Чемпионат мира по фристайлу и сноуборду 2019. Парк-Сити (США).
Фристайл. Слоупстайл.
Мужчины
Женщины. Соревнования отменили.
Стадион: Сноу-парк Парк-Сити (Парк-Сити, штат Юта, США)

Релиз от: Nitta4Ka

Продолжительность: 01:29:33
Качество видео: IPTVRip
Язык озвучки: Русский
Субтитры: отсутствуют

Видео: AVC/H.264, 1920x1080 (16:9), ~4063 Kbps
Аудио: AAC, 2 ch, 48 kHz, 192 Kbps

Mediainfo:


Общее
Уникальный идентификатор : 271287337230860456003878890819412345706 (0xCC180A66C456F14F32DD67A03E98C36A)
Полное имя : F:\SPORT\Фристайл, Сноуборд\2019.02.06. Freestyle WSC. Park City (USA). Slopestyle. Men.mkv
Формат : Matroska
Версия формата : Version 4
Размер файла : 2,66 Гбайт
Продолжительность : 1 ч. 29 м.
Режим общего битрейта : Переменный
Общий поток : 4254 Кбит/сек
Дата кодирования : UTC 2019-02-07 10:26:31
Программа кодирования : mkvmerge v29.0.0 ('Like It Or Not') 64-bit
Библиотека кодирования : libebml v1.3.6 + libmatroska v1.4.9

Видео
Идентификатор : 1
Формат : AVC
Формат/Информация : Advanced Video Codec
Профиль формата : High@L4
Настройки формата : CABAC / 4 Ref Frames
Параметр CABAC формата : Да
Параметр RefFrames формата : 4 кадра
Идентификатор кодека : V_MPEG4/ISO/AVC
Продолжительность : 1 ч. 29 м.
Вид битрейта : Переменный
Битрейт : 4063 Кбит/сек
Максимальный битрейт : 4500 Кбит/сек
Ширина : 1920 пикселей
Высота : 1080 пикселей
Соотношение сторон : 16:9
Режим частоты кадров : Постоянный
Частота кадров : 25,000 кадров/сек
Цветовое пространство : YUV
Субдискретизация насыщенности : 4:2:0
Битовая глубина : 8 бит
Тип развёртки : Прогрессивная
Бит/(Пиксели*Кадры) : 0.078
Размер потока : 2,54 Гбайт (95%)
Default : Да
Forced : Нет

Аудио
Идентификатор : 2
Формат : AAC LC
Формат/Информация : Advanced Audio Codec Low Complexity
Идентификатор кодека : A_AAC-2
Продолжительность : 1 ч. 29 м.
Битрейт : 192 Кбит/сек
Каналы : 2 канала
Channel layout : L R
Частота : 48,0 КГц
Частота кадров : 46,875 кадров/сек (1024 SPF)
Метод сжатия : С потерями
Размер потока : 121 Мбайт (4%)
Язык : Russian
Default : Да
Forced : Нет
Скриншоты:


Все одноименные релизы в Клубе

Детали торрента:
Название:Фристайл. Чемпионат мира 2019. Парк-Сити (США). Слоупстайл. Мужчины (2019) IPTVRip [H.264/1080p-LQ]
Дата добавления:11 Фев 2019 14:32:05
Размер:2,66 GB
Раздают:1
Качают:0
Форум:Прочие зимние виды спорта

All rights reserved © 2015-2019